torrent

UnionPeer.org . . UnionPeer.org 2014 2015 . .

.torrent

8.72 GB   |    :  7 2    |    .torrent :  65    |   
1  
   
 

Galfimbul

avatar Galfimbul


<span class="post-font-sans1"> | Aftermath</span>

<span class="post-font-sans1"> : Aftermath
:
: 2016
:
:
: ~40 .
: ( ) <span class="post-font-sans1">Jaskier</span>
:
: , ,
: , , , , , , -, , ,
: : , . . : ,
<span class="post-font-sans1">
: HDTVRip 720
: MKV
: AVC
: AC3
: 1280x720 (16:9), 23.976 fps, ~2756kbps, ~0.125 bit/pixel
1: Dolby AC3 48000Hz 5.1 384Kbps <span class="post-font-sans1"></span>
2: Dolby AC3 48000Hz 5.1 384Kbps <span class="post-font-sans1"> ()</span>
</span></span>
General
Unique ID : 252049232714282459452114495076711258966 (0xBD9EEA9E1168C97D85B1F03A8757DB56)
Complete name : F:\Movies\\Aftermath. Season 1 (HDTV l 720p l Jaskier)\Aftermath.S01E01.720p.Jaskier.Rus.Eng.mkv
Format : Matroska
Format version : Version 4 / Version 2
File size : 1.05 GiB
Duration : 42mn 29s
Overall bit rate : 3 526 Kbps
Encoded date : UTC 2016-10-06 20:51:28
Writing application : mkvmerge v7.8.0 ('River Man') 64bit built on Mar 27 2015 16:31:37
Writing library : libebml v1.3.1 libmatroska v1.4.2

Video
ID : 1
Format : AVC
Format/Info : Advanced Video Codec
Format profile : [email protected]
Format settings, CABAC : Yes
Format settings, ReFrames : 5 frames
Codec ID : V_MPEG4/ISO/AVC
Duration : 42mn 29s
Bit rate : 2 756 Kbps
Width : 1 280 pixels
Height : 720 pixels
Display aspect ratio : 16:9
Frame rate mode : Constant
Frame rate : 23.976 (24000/1001) fps
Color space : YUV
Chroma subsampling : 4:2:0
Bit depth : 8 bits
Scan type : Progressive
Bits/(Pixel*Frame) : 0.125
Stream size : 838 MiB (78%)
Writing library : x264 core 148 r2705 3f5ed56
Encoding settings : cabac=1 / ref=5 / deblock=1:0:0 / analyse=0x3:0x113 / me=umh / subme=8 / psy=1 / psy_rd=1.00:0.00 / mixed_ref=1 / me_range=16 / chroma_me=1 / trellis=1 / 8x8dct=1 / cqm=0 / deadzone=21,11 / fast_pskip=1 / chroma_qp_offset=-2 / threads=22 / lookahead_threads=3 / sliced_threads=0 / nr=0 / decimate=1 / interlaced=0 / bluray_compat=0 / constrained_intra=0 / bframes=3 / b_pyramid=2 / b_adapt=2 / b_bias=0 / direct=3 / weightb=1 / open_gop=0 / weightp=2 / keyint=250 / keyint_min=23 / scenecut=40 / intra_refresh=0 / rc_lookahead=50 / rc=crf / mbtree=1 / crf=18.0 / qcomp=0.60 / qpmin=0 / qpmax=69 / qpstep=4 / ip_ratio=1.40 / aq=1:1.00
Default : Yes
Forced : No
Color range : Limited
Matrix coefficients : BT.709

Audio #1
ID : 2
Format : AC-3
Format/Info : Audio Coding 3
Mode extension : CM (complete main)
Format settings, Endianness : Big
Codec ID : A_AC3
Duration : 42mn 29s
Bit rate mode : Constant
Bit rate : 384 Kbps
Channel(s) : 6 channels
Channel positions : Front: L C R, Side: L R, LFE
Sampling rate : 48.0 KHz
Frame rate : 31.250 fps (1536 spf)
Compression mode : Lossy
Stream size : 117 MiB (11%)
Title : Jaskier
Language : Russian
Default : Yes
Forced : No

Audio #2
ID : 3
Format : AC-3
Format/Info : Audio Coding 3
Mode extension : CM (complete main)
Format settings, Endianness : Big
Codec ID : A_AC3
Duration : 42mn 29s
Bit rate mode : Constant
Bit rate : 384 Kbps
Channel(s) : 6 channels
Channel positions : Front: L C R, Side: L R, LFE
Sampling rate : 48.0 KHz
Frame rate : 31.250 fps (1536 spf)
Compression mode : Lossy
Stream size : 117 MiB (11%)
Title : original
Language : English
Default : No
Forced : No
<span class="post-font-serif1">! ; . , :</span>

.
( ).
, .

<span class="post-font-serif1"> () ( - ), . , !
E , , . , , .</span>
http://


! AdBlock , )))
 ·  , , FAQ-
:  [ 25--2016 16:00 ]

  

.torrent

.torrent 23 KB


: 8.72 GB
(hash) : 67c83e5863d9b4e3134554dffec0197711f8cdc4
:
··
...

. !

!