Скачать через торрент Жизнь после Последствия Фильм бесплатно в хорошем качестве torrent

Скачивайте на UnionPeer.org фильмы через торрент без регистрации. Новинки кино в хорошем качестве через торрент. На UnionPeer.org можно скачать через торрент фильмы 2014 и 2015 годов. Самые новые фильмы.

Скачать торрент Жизнь после Последствия бесплатно через .torrent фильм мультфильм сериал

Статистика раздачи
Размер:  3.44 GB   |    Зарегистрирован:  7 лет 2 месяца   |    .torrent скачан:  66 раз   |   
Раздают:  1  
   
 
Автор Сообщение

Galfimbul

avatar Galfimbul


<span class="post-font-sans1">Жизнь после | Aftermath</span>

<span class="post-font-sans1">Оригинальное название: Aftermath
Русское название: Жизнь после
Год выпуска: 2016
Страна: Канада
Жанр: Фантастика
Продолжительность: ~40 мин.
Перевод: Профессиональный (многоголосый закадровый) Студия <span class="post-font-sans1">Jaskier</span>
Субтитры: Нет
Режиссёр: Стефан Плещински, Джейсон Стоун, Кааре Эндрюс
В ролях: Джеймс Таппер, Энн Хеч, Леви Миден, Тэйлор Хиксон, Джулия Сара Стоун, Митчелл Каммен, Джейсон Грей-Стенфорд, Сара Циолковски, Сара Дагдэйл, Патти Ким и другие
Описание: Главные герои — многодетное семейство Коупленд: супруги Карен и Джошуа и их дети — практичная и рассудительная Дана, романтичная Брианна и Мэтт. События происходят во время апокалипсиса. Семья Коупленд ведет борьбу за выживание в чудовищных условиях: штормы сменяются землетрясениями и метеоритными дождями, а на планете появляются сверхъестественные существа…
<span class="post-font-sans1">Сэмпл
Качество: HDTVRip
Формат: AVI
Видео кодек: XviD
Аудио кодек: AC3, MP3
Видео: 720x408 (16:9), 23.976 fps, ~1356kbps, ~0.135 bit/pixel
Аудио 1: Dolby AC3 48000Hz stereo 192Kbps <span class="post-font-sans1">Русский</span>
Аудио 2: Lame MP3 48000Hz stereo 128Kbps <span class="post-font-sans1">Оригинал (Английский)</span>
Присутствует аудиореклама
</span></span>
General
Complete name               : XXXXXXXXXXXXXXXXXXXXX\Aftermath.S01E01.XviD.HDTVRip-Jaskier.avi
Format                      : AVI
Format/Info                 : Audio Video Interleave
File size                   : 391 MiB
Duration                    : 42mn 29s
Overall bit rate            : 1 287 Kbps
Writing application         : VirtualDubModRus 1.5.10.2 (build 2540/release)
Writing library             : VirtualDubMod build 2540/release

Video
ID                          : 0
Format                      : MPEG-4 Visual
Format profile              : Advanced Simple@L5
Format settings, BVOP       : 1
Format settings, QPel       : No
Format settings, GMC        : No warppoints
Format settings, Matrix     : Default (H.263)
Codec ID                    : XVID
Codec ID/Hint               : XviD
Duration                    : 42mn 29s
Bit rate                    : 953 Kbps
Width                       : 720 pixels
Height                      : 408 pixels
Display aspect ratio        : 16:9
Frame rate                  : 23.976 (23976/1000) fps
Color space                 : YUV
Chroma subsampling          : 4:2:0
Bit depth                   : 8 bits
Scan type                   : Progressive
Compression mode            : Lossy
Bits/(Pixel*Frame)          : 0.135
Stream size                 : 290 MiB (74%)
Writing library             : XviD 1.2.1 (UTC 2008-12-04)

Audio #1
ID                          : 1
Format                      : AC-3
Format/Info                 : Audio Coding 3
Mode extension              : CM (complete main)
Format settings, Endianness : Big
Codec ID                    : 2000
Duration                    : 42mn 29s
Bit rate mode               : Constant
Bit rate                    : 192 Kbps
Channel(s)                  : 2 channels
Channel positions           : Front: L R
Sampling rate               : 48.0 KHz
Frame rate                  : 31.250 fps (1536 spf)
Compression mode            : Lossy
Stream size                 : 58.4 MiB (15%)
Alignment                   : Split accross interleaves
Interleave, duration        : 42 ms (1.00 video frame)
Interleave, preload duratio : 500 ms

Audio #2
ID                          : 2
Format                      : MPEG Audio
Format version              : Version 1
Format profile              : Layer 3
Codec ID                    : 55
Codec ID/Hint               : MP3
Duration                    : 42mn 29s
Bit rate mode               : Constant
Bit rate                    : 128 Kbps
Channel(s)                  : 2 channels
Sampling rate               : 48.0 KHz
Compression mode            : Lossy
Stream size                 : 38.9 MiB (10%)
Alignment                   : Aligned on interleaves
Interleave, duration        : 42 ms (1.00 video frame)
Interleave, preload duratio : 504 ms
Writing library             : LAME3.98r
Encoding settings           : -m s -V 4 -q 0 -lowpass 17 -b 128
<span class="post-font-serif1">Внимание! Раздача ведётся путём добавления новых серий; при каждом добавлении создётся новый торрент. Чтобы начать докачку новой серии, пользователям необходимо сделать следующее:</span>

Остановить скачивание.
Удалить старый торрент у себя из клиента (старые серии удалять не надо).
Скачать новый торрент и запустить его у себя в клиенте вместо старого, при этом указать клиенту путь в старую папку куда и должно происходить скачивание новых серий.

<span class="post-font-serif1">Ваш клиент при этом должен произвести хеширование (проверку) старой папки (если не производит сам - помогите ему сделать это), и будет докачивать только те серии которых у вас ещё нет. Старые серии при этом не удаляются, а продолжают раздаваться!
Eсли вы уже удалили старые серии, то предотвратить повторную закачку старых серий можно, отжав галочку в соответсвующих местах при запуске нового торрента. По возможности, желательно не удалять старые серии как можно дольше чтобы релизёр не столько продолжал раздавать старые серии, а смог сконцентрироваться на новых.</span>
<a href="tracker.php?f=189,2366,842,235&nm=Aftermath" class="postLink">...189,2366,842,235&nm=Aftermath</a>


Внимание! AdBlock блокирует показ скриншотов, все вопросы к разработчикам )))
Трекер:  [ 26-Ноя-2016 01:30 ]

  

Скачать .torrent

Размер .torrent файла 18 KB


Размер: 3.44 GB
Хэш (hash) релиза: 61c10ddec4c9672259c54aab262030df94011840
Подписка на обновления:

Торренты, похожие на Жизнь после Последствия скачать торрент

Форум Название Автор Размер S L Добавлен
Зарубежные сериалы ·· Жизнь после / Последствия / Aftermath / Сезон: 1 / Серия: 1-9 из 13 (Стефан Плещински, Джейсон Стоун, Кааре Эндрюс) [2016, Канада, фантастика, HDTVRip 720p] MVO (Jaskier) + Original Galfimbul 93682547548.72 GB 0 0 1480081441

16:44

25-Ноя-16

Еще никто не оставлял запись к записи скачать торрент Жизнь после Последствия . Будь первым!

!Обратная связь