Скачать через торрент Парни со стволами War Dogs Фильм бесплатно в хорошем качестве torrent

Скачивайте на UnionPeer.org фильмы через торрент без регистрации. Новинки кино в хорошем качестве через торрент. На UnionPeer.org можно скачать через торрент фильмы 2014 и 2015 годов. Самые новые фильмы.

Скачать торрент Парни со стволами War Dogs бесплатно через .torrent фильм мультфильм сериал

Статистика раздачи
Размер:  15.04 GB   |    Зарегистрирован:  7 лет 2 месяца   |    .torrent скачан:  84 раза   |   
Раздают:  1  
 

Скачать Парни со стволами / War Dogs (Тодд Филлипс / Todd Phillips) [2016, США, драма, комедия, военный, BDRip 1080p] Dub (iTunes) + Sub (Rus, Eng) + Original (Eng) через torrent

 
 
Автор Сообщение

Galfimbul

avatar Galfimbul


Парни со стволами / War Dogs

Страна: США
Студия: Green Hat Films, Mark Gordon Company, The
Жанр: Драма, комедия, военный
Год выпуска: 2016
Продолжительность: 01:54:12

Перевод: Профессиональный (дублированный) iTunes
Cубтитры: Russian (Forced, Full), English (Full, SDH)
Оригинальная аудиодорожка: английский

Режиссер: Тодд Филлипс / Todd Phillips

В ролях: Майлз Теллер, Джона Хилл, Стив Лэнц, Грегг Уэйнер, Эдди Джемисон, Джулиан Сержи, Дэниэл Берсон, Эдсон Жан, Брэдли Купер

Описание: Реальная история о приятелях-планокурах из Майами, умудрившихся выбить в Пентагоне контракт на 300 миллионов долларов на поставку оружия.



Тип релиза: BDRip 1080p
Контейнер: MKV

Видео: MPEG-4 AVC, 16,7 Мбит/сек, 1920x800, 23,976 fps
Аудио: AC3, 640 kb/s (6 ch), 48 kHz
Аудио 2: DTS, 1509 kb/s (6 ch), 48 kHz
ОбщееУникальный идентификатор : 230675066216671467716634026977767595756 (0xAD8A66D8C2F88658991422F9DC6A1EEC)Полное имя : E:\War.Dogs.2O16.BDRip.1080p.Kuerto.mkvФормат : MatroskaВерсия формата : Version 4 / Version 2Размер файла : 15,0 ГбайтПродолжительность : 1 ч. 54 м.Общий поток : 18,9 Мбит/секНазвание фильма : War.Dogs.2O16.BDRip.1080p.Kuerto rutracker.orgДата кодирования : UTC 2016-12-05 09:04:06Программа кодирования : mkvmerge v9.4.0 ('Knurl') 64bitБиблиотека кодирования : libebml v1.3.4 + libmatroska v1.4.5Обложка : YesAttachments : Cover.jpg

ВидеоИдентификатор : 1Формат : AVCФормат/Информация : Advanced Video CodecПрофиль формата : [email protected]Параметр CABAC формата : ДаПараметр ReFrames формата : 5 кадровИдентификатор кодека : V_MPEG4/ISO/AVCПродолжительность : 1 ч. 54 м.Битрейт : 16,7 Мбит/секШирина : 1920 пикселейВысота : 800 пикселейСоотношение сторон : 2,40:1Режим частоты кадров : ПостоянныйЧастота кадров : 23,976 (24000/1001) кадра/секЦветовое пространство : YUVСубдискретизация насыщенности : 4:2:0Битовая глубина : 8 битТип развёртки : ПрогрессивнаяБит/(Пиксели*Кадры) : 0.454Размер потока : 13,3 Гбайт (89%)Заголовок : War.Dogs.2O16.BDRip.1080p.Kuerto rutracker.orgБиблиотека кодирования : x264 core 148 r2705+54 9f484c1 t_mod_Custom [8-bit@all X86_64]Настройки программы : cabac=1 / ref=5 / deblock=1:-3:-3 / analyse=0x3:0x133 / me=umh / subme=11 / psy=1 / fade_compensate=0.00 / psy_rd=1.05:0.00 / mixed_ref=1 / me_range=32 / chroma_me=1 / trellis=2 / 8x8dct=1 / cqm=0 / deadzone=21,11 / fast_pskip=0 / chroma_qp_offset=-2 / threads=12 / lookahead_threads=2 / sliced_threads=0 / nr=0 / decimate=0 / interlaced=0 / bluray_compat=0 / constrained_intra=0 / fgo=0 / bframes=9 / b_pyramid=2 / b_adapt=2 / b_bias=0 / direct=3 / weightb=1 / open_gop=0 / weightp=2 / keyint=250 / keyint_min=23 / scenecut=40 / intra_refresh=0 / rc_lookahead=60 / rc=crf / mbtree=0 / crf=16.7000 / qcomp=0.65 / qpmin=0:0:0 / qpmax=69:69:69 / qpstep=4 / vbv_maxrate=62500 / vbv_bufsize=78125 / crf_max=0.0 / nal_hrd=none / filler=0 / ip_ratio=1.30 / pb_ratio=1.20 / aq=3:0.80 / aq-sensitivity=10.00 / aq-factor=1.00:1.00:1.00 / aq2=0 / aq3=0 / zones=606,730,crf=13/769,1054,crf=12/22609,23505,crf=13/57890,58033,crf=13/60033,60142,crf=13/68153,68188,crf=13/74330,74402,crf=13/75284,75417,crf=13/87106,87166,crf=13/112358,112464,crf=13/112538,112603,crf=13/112700,112828,crf=13/112988,113132,crf=12/113172,113256,crf=12/115017,115101,crf=12/128435,128469,crf=10/128581,128670,crf=11/128733,128821,crf=12/129034,129197,crf=12/155921,164138,crf=22Язык : EnglishDefault : ДаForced : НетЦветовой диапазон : LimitedКоэффициенты матрицы : BT.709

Аудио #1Идентификатор : 2Формат : AC-3Формат/Информация : Audio Coding 3Расширение режима : CM (complete main)Параметр Endianness формата : BigИдентификатор кодека : A_AC3Продолжительность : 1 ч. 54 м.Вид битрейта : ПостоянныйБитрейт : 640 Кбит/секКаналы : 6 каналовРасположение каналов : Front: L C R, Side: L R, LFEЧастота : 48,0 КГцЧастота кадров : 31,250 кадров/сек (1536 spf)Метод сжатия : С потерямиРазмер потока : 523 Мбайт (3%)Заголовок : Дубляж | BD CEEЯзык : RussianDefault : ДаForced : Нет

Аудио #2Идентификатор : 3Формат : DTSФормат/Информация : Digital Theater SystemsРежим : 16Параметр Endianness формата : BigИдентификатор кодека : A_DTSПродолжительность : 1 ч. 54 м.Вид битрейта : ПостоянныйБитрейт : 1509 Кбит/секКаналы : 6 каналовРасположение каналов : Front: L C R, Side: L R, LFEЧастота : 48,0 КГцЧастота кадров : 93,750 кадра/сек (512 spf)Битовая глубина : 24 битМетод сжатия : С потерямиРазмер потока : 1,20 Гбайт (8%)Заголовок : OriginalЯзык : EnglishDefault : НетForced : Нет

Текст #1Идентификатор : 4Формат : UTF-8Идентификатор кодека : S_TEXT/UTF8Идентификатор кодека/Информация : UTF-8 Plain TextПродолжительность : 1 ч. 48 м.Битрейт : 2 бит/секCount of elements : 42Размер потока : 1,76 Кбайт (0%)Заголовок : ForcedЯзык : RussianDefault : ДаForced : Нет

Текст #2Идентификатор : 5Формат : UTF-8Идентификатор кодека : S_TEXT/UTF8Идентификатор кодека/Информация : UTF-8 Plain TextПродолжительность : 1 ч. 53 м.Битрейт : 107 бит/секCount of elements : 1297Размер потока : 89,5 Кбайт (0%)Заголовок : FullЯзык : RussianDefault : НетForced : Нет

Текст #3Идентификатор : 6Формат : UTF-8Идентификатор кодека : S_TEXT/UTF8Идентификатор кодека/Информация : UTF-8 Plain TextПродолжительность : 1 ч. 53 м.Битрейт : 71 бит/секCount of elements : 1793Размер потока : 59,0 Кбайт (0%)Язык : EnglishDefault : НетForced : Нет

Текст #4Идентификатор : 7Формат : UTF-8Идентификатор кодека : S_TEXT/UTF8Идентификатор кодека/Информация : UTF-8 Plain TextПродолжительность : 1 ч. 53 м.Битрейт : 76 бит/секCount of elements : 1936Размер потока : 63,1 Кбайт (0%)Заголовок : SDHЯзык : EnglishDefault : НетForced : Нет

Меню00:00:00.000 : en:00:00:00.00000:10:13.780 : en:00:10:13.78000:19:00.931 : en:00:19:00.93100:30:21.111 : en:00:30:21.11100:40:02.525 : en:00:40:02.52500:50:56.178 : en:00:50:56.17800:59:34.362 : en:00:59:34.36201:10:59.380 : en:01:10:59.38001:20:08.929 : en:01:20:08.92901:32:06.020 : en:01:32:06.02001:39:36.220 : en:01:39:36.22001:48:19.118 : en:01:48:19.118


Внимание! AdBlock блокирует показ скриншотов, все вопросы к разработчикам )))
Трекер:  [ 05-Дек-2016 08:30 ]

  

Скачать .torrent

Размер .torrent файла 75 KB


Размер: 15.04 GB
Хэш (hash) релиза: 569385c98fb863208218c5a8e135e9bcd3f9255f
Подписка на обновления:

Торренты, похожие на Парни со стволами War Dogs скачать торрент

Форум Название Автор Размер S L Добавлен
Зарубежные фильмы 2016-2019 (Новинки зарубежного кино) ·· Парни со стволами / War Dogs (2016) BDRip 1080p от HDReactor | Лицензия Galfimbul 83326859207.76 GB 0 0 1583670620

15:30

8-Мар-20

Зарубежные фильмы 2016-2019 (Новинки зарубежного кино) ·· Парни со стволами / War Dogs (2016) WEB-DL 1080p | D, A | Open Matte Galfimbul 1306375841812.17 GB 0 0 1582302613

19:30

21-Фев-20

Зарубежные фильмы 2016-2019 (Новинки зарубежного кино) ·%· Парни со стволами / War Dogs (2016) BDRip-HEVC 1080p | D Galfimbul 61757722275.75 GB 0 0 1539660700

06:31

16-Окт-18

Зарубежные фильмы 2016-2019 (Новинки зарубежного кино) ·%· Парни со стволами / War Dogs (2016) WEB-DLRip-AVC | D | Open Matte Galfimbul 783433172747 MB 0 0 1536162627

18:50

5-Сен-18

Зарубежные фильмы 2016-2019 (Новинки зарубежного кино) ·%· Парни со стволами / War Dogs (2016) WEB-DLRip-AVC | D | Open Matte Galfimbul 23835580472.22 GB 0 0 1536150015

15:20

5-Сен-18

Зарубежные фильмы 2016-2019 (Новинки зарубежного кино) ·· Парни со стволами / War Dogs (Тодд Филлипс / Todd Phillips) [2016, США, драма, комедия, криминал, WEB-DLRip-AVC] [Open Matte] Dub + Sub Rus Eng + Original Eng Galfimbul 23502643262.19 GB 0 0 1504013420

16:30

29-Авг-17

Зарубежные фильмы до 2016 ·· Парни со стволами / War Dogs (Тодд Филлипс / Todd Phillips) [2016, США, драма, комедия, криминал, военный, BDRip 1080p] Dub (Blu-ray CEE) + Sub Rus, Eng + Original Eng Galfimbul 1503165831014 GB 0 0 1481745569

22:59

14-Дек-16

Зарубежные фильмы до 2016 ·· Парни со стволами / War Dogs (Тодд Филлипс / Todd Phillips) [2016, США, драма, комедия, криминал, военный, BDRip 720p] Dub + Sub Rus, Eng + Original Eng Galfimbul 65538345096.1 GB 0 0 1481745563

22:59

14-Дек-16

Зарубежные фильмы до 2016 ·· Парни со стволами / War Dogs (Тодд Филлипс / Todd Phillips) [2016, США, драма, комедия, военный, BDRip 720p] Dub (iTunes) + Sub (Rus, Eng) + Original (Eng) Galfimbul 67139816006.25 GB 0 0 1480917220

08:53

5-Дек-16

Зарубежные фильмы 2016-2019 (Новинки зарубежного кино) ·· Парни со стволами / War Dogs (Тодд Филлипс / Todd Phillips) [2016, США, драма, комедия, криминал, BDRip-AVC] Dub + Original + Sub (rus, eng) Galfimbul 23165880662.16 GB 0 0 1480847488

13:31

4-Дек-16

Трейлеры и дополнительные материалы ·· Парни со Стволами / War Dogs (Тодд Филлипс) [2016, Драма | Комедия | Военный, BDRip 720p] дополнительные материалы Galfimbul 679647249648 MB 0 0 1480159943

14:32

26-Ноя-16

Зарубежные фильмы до 2016 ·· Парни со стволами / War Dogs (Тодд Филлипс / Todd Phillips) [2016, США, драма, комедия, криминал, военный, Blu-ray disc 1080p] [CEE] Dub + Sub Rus, Eng + Original Eng Galfimbul 3679971191134.27 GB 0 0 1479925340

21:22

23-Ноя-16

Зарубежные фильмы 2016-2019 (Новинки зарубежного кино) ·· Парни со стволами / War Dogs (Тодд Филлипс) [2016 г., Драма, комедия, военный, BDRip 720p] iTunes Galfimbul 64943780516.05 GB 0 0 1478902752

01:19

12-Ноя-16

Зарубежные фильмы 2016-2019 (Новинки зарубежного кино) ·· Парни со стволами / War Dogs (Тодд Филлипс) [2016 г., Драма, комедия, военный, BDRip 1080p] iTunes Galfimbul 81048220517.55 GB 0 0 1478899031

00:17

12-Ноя-16

Зарубежные фильмы 2016-2019 (Новинки зарубежного кино) ·· Парни со стволами / War Dogs (Тодд Филлипс) [2016 г., Драма, комедия, военный, BDRip 720p] Line Galfimbul 56784000435.29 GB 0 0 1478666565

07:42

9-Ноя-16

Зарубежные фильмы 2016-2019 (Новинки зарубежного кино) ·· Парни со стволами / War Dogs (Тодд Филлипс) [2016 г., Драма, комедия, военный, BDRip 1080p] Line Galfimbul 102548536409.55 GB 0 0 1478666555

07:42

9-Ноя-16

Зарубежные фильмы 2016-2019 (Новинки зарубежного кино) ·· Парни со стволами / War Dogs (Тодд Филлипс) [2016 г., Драма, комедия, военный, HDRip] Line Galfimbul 14671585281.37 GB 0 0 1478650454

03:14

9-Ноя-16

Зарубежные фильмы 2016-2019 (Новинки зарубежного кино) ·· Парни со стволами / War Dogs (Тодд Филлипс) [2016 г., Драма, комедия, военный, HDRip] Line Galfimbul 716772208684 MB 0 0 1478650450

03:14

9-Ноя-16

Зарубежные фильмы 2016-2019 (Новинки зарубежного кино) ·· Парни со стволами / War Dogs (Тодд Филлипс) [2016 г., Драма, комедия, военный, TS] Line Galfimbul 14678671361.37 GB 0 0 1477969752

06:09

1-Ноя-16

Еще никто не оставлял запись к записи скачать торрент Парни со стволами War Dogs . Будь первым!

!Обратная связь