Скачать через торрент Парни со стволами War Dogs Фильм бесплатно в хорошем качестве torrent

Скачивайте на UnionPeer.org фильмы через торрент без регистрации. Новинки кино в хорошем качестве через торрент. На UnionPeer.org можно скачать через торрент фильмы 2014 и 2015 годов. Самые новые фильмы.

Скачать торрент Парни со стволами War Dogs бесплатно через .torrent фильм мультфильм сериал

Статистика раздачи
Размер:  6.1 GB   |    Зарегистрирован:  7 лет 2 месяца   |    .torrent скачан:  104 раза   |   
Раздают:  1  
 

Скачать Парни со стволами / War Dogs (Тодд Филлипс / Todd Phillips) [2016, США, драма, комедия, криминал, военный, BDRip 720p] Dub + Sub Rus, Eng + Original Eng через torrent

 
 
Автор Сообщение

Galfimbul

avatar Galfimbul




<span class="post-font-serif1">Парни со стволами / War Dogs</span>

<span class="post-font-serif1">An American dream»</span>
<span class="post-font-serif1">
Страна: США
Студия: Green Hat Films, Joint Effort, Mark Gordon Company
Жанр: драма, комедия, криминал, военный
Год выпуска: 2016
Продолжительность: 01:54:12
Перевод: Профессиональный (дублированный) Blu-ray CEE
Cубтитры: Русские (Forced, iTunes), Английские (SDH)
Оригинальная аудиодорожка: английский
В ролях: Майлз Теллер, Джона Хилл, Ана де Армас, Кевин Поллак, Брэдли Купер, Джейби Бланк, Шон Тоуб, Патрик Ст. Эсприт, Андрей Финти, Эдди Джемисон

Описание: Реальная история о приятелях-планокурах из Майами, умудрившихся выбить в Пентагоне контракт на 300 миллионов долларов на поставку оружия.
| Сэмпл | IMDB | КиноПоиск |


Тип релиза: BDRip 720p
Контейнер: MKV

Видео: 1280x534 at 23.976 fps, x264, ~5500 kbps avg
Аудио: Русский 48 kHz, AC3, 3/2 (L,C,R,l,r) + LFE ch, ~640.00 kbps avg
Аудио 2: Английский 48 kHz, DTS, 3/2 (L,C,R,l,r) + LFE ch, ~1536.00 kbps avg
Формат субтитров: softsub (SRT)</span>
General
Уникальный идентификатор : 244726503165758998468106369463613695875 (0xB81C9C2D1A44FEACB06408029234A783)
Полное имя : D:\MOVIES\War.Dogs.2016.720p.BluRay.Rus.Eng.HDCLUB.mkv
Формат : Matroska
Версия формата : Version 2
Размер файла : 6.10 GiB
Продолжительность : 1h 54mn
Общий поток : 7 651 Kbps
Название фильма : War Dogs (2016)
Дата кодирования : UTC 2016-11-22 22:15:43
Программа кодирования : mkvmerge v3.4.0 ('Rapunzel') built on May 15 2010 09:38:20
Библиотека кодирования : libebml v0.8.0 + libmatroska v0.9.0

Video
Идентификатор : 1
Формат : AVC
Формат/Информация : Advanced Video Codec
Профиль формата : [email protected]
Параметр CABAC формата : Yes
Параметр ReFrames формата : 12 frames
Идентификатор кодека : V_MPEG4/ISO/AVC
Продолжительность : 1h 54mn
Битрейт : 5 500 Kbps
Ширина : 1 280 pixels
Высота : 534 pixels
Соотношение сторон : 2.40:1
Режим частоты кадров : Constant
Частота кадров : 23.976 fps
Цветовое пространство : YUV
Субдискретизация насыщенности : 4:2:0
Битовая глубина : 8 bits
Тип развёртки : Progressive
Бит/(Пиксели*Кадры) : 0.336
Размер потока : 4.27 GiB (70%)
Заголовок : War Dogs (2016)
Библиотека кодирования : x264 core 148 r2705 3f5ed56
Настройки программы : cabac=1 / ref=12 / deblock=1:-3:-3 / analyse=0x3:0x133 / me=umh / subme=11 / psy=1 / psy_rd=1.05:0.00 / mixed_ref=1 / me_range=32 / chroma_me=1 / trellis=2 / 8x8dct=1 / cqm=0 / deadzone=21,11 / fast_pskip=0 / chroma_qp_offset=-2 / threads=12 / lookahead_threads=2 / sliced_threads=0 / slices=4 / nr=0 / decimate=0 / interlaced=0 / bluray_compat=0 / constrained_intra=0 / bframes=8 / b_pyramid=2 / b_adapt=2 / b_bias=0 / direct=3 / weightb=1 / open_gop=0 / weightp=2 / keyint=250 / keyint_min=23 / scenecut=40 / intra_refresh=0 / rc_lookahead=40 / rc=2pass / mbtree=0 / bitrate=5500 / ratetol=1.0 / qcomp=0.60 / qpmin=0 / qpmax=69 / qpstep=4 / cplxblur=20.0 / qblur=0.5 / vbv_maxrate=50000 / vbv_bufsize=62500 / nal_hrd=none / filler=0 / ip_ratio=1.30 / pb_ratio=1.30 / aq=3:0.75 / zones=399,1054,b=1.7/1537,2976,b=1.4/22609,24184,b=1.4/30311,30981,b=1.4/31077,31994,b=1.4/33867,38946,b=1.4/40406,40513,b=1.4/42218,50254,b=1.4/57603,62092,b=1.4/75161,76028,b=1.4/78878,81948,b=1.4/85699,89238,b=1.4/93237,96569,b=1.4/98268,98460,b=1.4/112124,113256,b=1.4/113664,114216,b=1.4/114289,115101,b=1.4/115154,115299,b=1.4/116070,119719,b=1.4/122467,128420,b=1.4/128421,129300,b=1.7/129301,132321,b=1.4/148365,148855,b=1.4/155837,164305,b=0.2
Язык : English
Default : Yes
Forced : No

Audio #1
Идентификатор : 2
Формат : AC-3
Формат/Информация : Audio Coding 3
Расширение режима : CM (complete main)
Параметр Endianness формата : Big
Идентификатор кодека : A_AC3
Продолжительность : 1h 54mn
Вид битрейта : Constant
Битрейт : 640 Kbps
Каналы : 6 channels
Расположение каналов : Front: L C R, Side: L R, LFE
Частота : 48.0 KHz
Метод сжатия : Lossy
Размер потока : 523 MiB (8%)
Заголовок : AC3 5.1 @ 640 kbps - DUB, Blu-ray CEE
Язык : Russian
Default : Yes
Forced : No

Audio #2
Идентификатор : 3
Формат : DTS
Формат/Информация : Digital Theater Systems
Режим : 16
Параметр Endianness формата : Big
Идентификатор кодека : A_DTS
Продолжительность : 1h 54mn
Вид битрейта : Constant
Битрейт : 1 509 Kbps
Каналы : 6 channels
Расположение каналов : Front: L C R, Side: L R, LFE
Частота : 48.0 KHz
Битовая глубина : 24 bits
Метод сжатия : Lossy
Задержка видео : 11ms
Размер потока : 1.20 GiB (20%)
Заголовок : DTS 5.1 @ 1536 kbps
Язык : English
Default : No
Forced : No

Text #1
Идентификатор : 4
Формат : UTF-8
Идентификатор кодека : S_TEXT/UTF8
Идентификатор кодека/Информация : UTF-8 Plain Text
Заголовок : Forced, iTunes
Язык : Russian
Default : Yes
Forced : No

Text #2
Идентификатор : 5
Формат : UTF-8
Идентификатор кодека : S_TEXT/UTF8
Идентификатор кодека/Информация : UTF-8 Plain Text
Заголовок : iTunes
Язык : Russian
Default : No
Forced : No

Text #3
Идентификатор : 6
Формат : UTF-8
Идентификатор кодека : S_TEXT/UTF8
Идентификатор кодека/Информация : UTF-8 Plain Text
Язык : English
Default : No
Forced : No

Text #4
Идентификатор : 7
Формат : UTF-8
Идентификатор кодека : S_TEXT/UTF8
Идентификатор кодека/Информация : UTF-8 Plain Text
Заголовок : SDH
Язык : English
Default : No
Forced : No

Menu
00:00:00.000 : en:00:00:00.000
00:10:13.780 : en:00:10:13.780
00:19:00.931 : en:00:19:00.931
00:30:21.111 : en:00:30:21.111
00:40:02.525 : en:00:40:02.525
00:50:56.178 : en:00:50:56.178
00:59:34.362 : en:00:59:34.362
01:10:59.380 : en:01:10:59.380
01:20:08.929 : en:01:20:08.929
01:32:06.020 : en:01:32:06.020
01:39:36.220 : en:01:39:36.220
01:48:19.118 : en:01:48:19.118


Внимание! AdBlock блокирует показ скриншотов, все вопросы к разработчикам )))
Трекер:  [ 14-Дек-2016 22:00 ]

  

Скачать .torrent

Размер .torrent файла 31 KB


Размер: 6.1 GB
Хэш (hash) релиза: ad41cd1d7fdcf3708f99466c083e22d8bbbc102c
Подписка на обновления:

Торренты, похожие на Парни со стволами War Dogs скачать торрент

Форум Название Автор Размер S L Добавлен
Зарубежные фильмы 2016-2019 (Новинки зарубежного кино) ·· Парни со стволами / War Dogs (2016) BDRip 1080p от HDReactor | Лицензия Galfimbul 83326859207.76 GB 0 0 1583670620

15:30

8-Мар-20

Зарубежные фильмы 2016-2019 (Новинки зарубежного кино) ·· Парни со стволами / War Dogs (2016) WEB-DL 1080p | D, A | Open Matte Galfimbul 1306375841812.17 GB 0 0 1582302613

19:30

21-Фев-20

Зарубежные фильмы 2016-2019 (Новинки зарубежного кино) ·%· Парни со стволами / War Dogs (2016) BDRip-HEVC 1080p | D Galfimbul 61757722275.75 GB 0 0 1539660700

06:31

16-Окт-18

Зарубежные фильмы 2016-2019 (Новинки зарубежного кино) ·%· Парни со стволами / War Dogs (2016) WEB-DLRip-AVC | D | Open Matte Galfimbul 783433172747 MB 0 0 1536162627

18:50

5-Сен-18

Зарубежные фильмы 2016-2019 (Новинки зарубежного кино) ·%· Парни со стволами / War Dogs (2016) WEB-DLRip-AVC | D | Open Matte Galfimbul 23835580472.22 GB 0 0 1536150015

15:20

5-Сен-18

Зарубежные фильмы 2016-2019 (Новинки зарубежного кино) ·· Парни со стволами / War Dogs (Тодд Филлипс / Todd Phillips) [2016, США, драма, комедия, криминал, WEB-DLRip-AVC] [Open Matte] Dub + Sub Rus Eng + Original Eng Galfimbul 23502643262.19 GB 0 0 1504013420

16:30

29-Авг-17

Зарубежные фильмы до 2016 ·· Парни со стволами / War Dogs (Тодд Филлипс / Todd Phillips) [2016, США, драма, комедия, криминал, военный, BDRip 1080p] Dub (Blu-ray CEE) + Sub Rus, Eng + Original Eng Galfimbul 1503165831014 GB 0 0 1481745569

22:59

14-Дек-16

Зарубежные фильмы до 2016 ·· Парни со стволами / War Dogs (Тодд Филлипс / Todd Phillips) [2016, США, драма, комедия, военный, BDRip 1080p] Dub (iTunes) + Sub (Rus, Eng) + Original (Eng) Galfimbul 1615326150215.04 GB 0 0 1480917228

08:53

5-Дек-16

Зарубежные фильмы до 2016 ·· Парни со стволами / War Dogs (Тодд Филлипс / Todd Phillips) [2016, США, драма, комедия, военный, BDRip 720p] Dub (iTunes) + Sub (Rus, Eng) + Original (Eng) Galfimbul 67139816006.25 GB 0 0 1480917220

08:53

5-Дек-16

Зарубежные фильмы 2016-2019 (Новинки зарубежного кино) ·· Парни со стволами / War Dogs (Тодд Филлипс / Todd Phillips) [2016, США, драма, комедия, криминал, BDRip-AVC] Dub + Original + Sub (rus, eng) Galfimbul 23165880662.16 GB 0 0 1480847488

13:31

4-Дек-16

Трейлеры и дополнительные материалы ·· Парни со Стволами / War Dogs (Тодд Филлипс) [2016, Драма | Комедия | Военный, BDRip 720p] дополнительные материалы Galfimbul 679647249648 MB 0 0 1480159943

14:32

26-Ноя-16

Зарубежные фильмы до 2016 ·· Парни со стволами / War Dogs (Тодд Филлипс / Todd Phillips) [2016, США, драма, комедия, криминал, военный, Blu-ray disc 1080p] [CEE] Dub + Sub Rus, Eng + Original Eng Galfimbul 3679971191134.27 GB 0 0 1479925340

21:22

23-Ноя-16

Зарубежные фильмы 2016-2019 (Новинки зарубежного кино) ·· Парни со стволами / War Dogs (Тодд Филлипс) [2016 г., Драма, комедия, военный, BDRip 720p] iTunes Galfimbul 64943780516.05 GB 0 0 1478902752

01:19

12-Ноя-16

Зарубежные фильмы 2016-2019 (Новинки зарубежного кино) ·· Парни со стволами / War Dogs (Тодд Филлипс) [2016 г., Драма, комедия, военный, BDRip 1080p] iTunes Galfimbul 81048220517.55 GB 0 0 1478899031

00:17

12-Ноя-16

Зарубежные фильмы 2016-2019 (Новинки зарубежного кино) ·· Парни со стволами / War Dogs (Тодд Филлипс) [2016 г., Драма, комедия, военный, BDRip 720p] Line Galfimbul 56784000435.29 GB 0 0 1478666565

07:42

9-Ноя-16

Зарубежные фильмы 2016-2019 (Новинки зарубежного кино) ·· Парни со стволами / War Dogs (Тодд Филлипс) [2016 г., Драма, комедия, военный, BDRip 1080p] Line Galfimbul 102548536409.55 GB 0 0 1478666555

07:42

9-Ноя-16

Зарубежные фильмы 2016-2019 (Новинки зарубежного кино) ·· Парни со стволами / War Dogs (Тодд Филлипс) [2016 г., Драма, комедия, военный, HDRip] Line Galfimbul 14671585281.37 GB 0 0 1478650454

03:14

9-Ноя-16

Зарубежные фильмы 2016-2019 (Новинки зарубежного кино) ·· Парни со стволами / War Dogs (Тодд Филлипс) [2016 г., Драма, комедия, военный, HDRip] Line Galfimbul 716772208684 MB 0 0 1478650450

03:14

9-Ноя-16

Зарубежные фильмы 2016-2019 (Новинки зарубежного кино) ·· Парни со стволами / War Dogs (Тодд Филлипс) [2016 г., Драма, комедия, военный, TS] Line Galfimbul 14678671361.37 GB 0 0 1477969752

06:09

1-Ноя-16

Еще никто не оставлял запись к записи скачать торрент Парни со стволами War Dogs . Будь первым!

!Обратная связь