Скачать через торрент Другой мир: Войны крови Underworld: Blood Wars Фильм бесплатно в хорошем качестве torrent

Скачивайте на UnionPeer.org фильмы через торрент без регистрации. Новинки кино в хорошем качестве через торрент. На UnionPeer.org можно скачать через торрент фильмы 2014 и 2015 годов. Самые новые фильмы.

Скачать торрент Другой мир: Войны крови Underworld: Blood Wars бесплатно через .torrent фильм мультфильм сериал

Статистика раздачи
Размер:  3.42 GB   |    Зарегистрирован:  6 лет 9 месяцев   |    .torrent скачан:  180 раз   |   
Раздают:  1  
 

Скачать Другой мир: Войны крови / Underworld: Blood Wars (Анна Ферстер) [2016 г., Ужасы, боевик, WEB-DL 1080р] А через torrent

 
 
Автор Сообщение

Galfimbul

avatar Galfimbul


Другой мир: Войны крови / Underworld: Blood Wars

Страна: США
Производство: Lakeshore Entertainment, Screen Gems, Sketch Films
Год выпуска: 2016
Жанр: ужасы, боевик
Продолжительность: 01:31:49

Режиссер: Анна Ферстер
Авторы сценария: Кори Гудман, Кайл Уорд, Кевин Гревье

В ролях: Кейт Бекинсейл, Тео Джеймс, Брэдли Джеймс, Чарльз Дэнс, Алисия Вела-Бэйли, Тобайас Мензис, Лара Пулвер, Дэйзи Хэд, Трент Гарретт

Описание: Воительница-вампир Селена вступает в свой последний и решающий бой между оборотнями и кланом вампиров, который предал её...



Перевод: Авторский (одноголосый) | Дмитрий Есарев
Субтитры: русские, английские
Качество: WEB-DL 1080р
Формат: МКV
Видео кодек: AVC
Аудио кодек: АС3
Видео: 1920x796 (2.40:1), 23.976 fps, MPEG-4 AVC ~4 557 kbps avg
Аудио №1: 48.0 kHz, AC3 Dolby Digital, 3/2 (L,C,R,l,r) + LFE ch, ~384 kbps | RUS
Аудио №2: 48.0 kHz, AC3 Dolby Digital, 3/2 (L,C,R,l,r) + LFE ch, ~384 kbps | ENG
Формат субтитров: UTF-8 Plain Text

Дата премьеры (мир): 24 ноября 2016
Дата премьеры (РФ): 24 ноября 2016, «WDSSPR»

Релиз от: </a>
General
Unique ID : 186458394618519005594148861456792317751 (0x8C46949F6FE8B5C3AED4D34083026F37)
Complete name : Underworld.Blood.Wars.2016.AVO.WEB-DL.1080p.ExKinoRay.mkv
Format : Matroska
Format version : Version 4 / Version 2
File size : 3.42 GiB
Duration : 1 h 31 min
Overall bit rate : 5 325 kb/s
Encoded date : UTC 2017-03-07 02:34:12
Writing application : mkvmerge v8.3.0 ('Over the Horizon') 64bit
Writing library : libebml v1.3.1 + libmatroska v1.4.2

Video
ID : 1
Format : AVC
Format/Info : Advanced Video Codec
Format profile : High@L4
Format settings, CABAC : Yes
Format settings, ReFrames : 5 frames
Codec ID : V_MPEG4/ISO/AVC
Duration : 1 h 31 min
Bit rate : 4 557 kb/s
Width : 1 920 pixels
Height : 796 pixels
Display aspect ratio : 2.40:1
Frame rate mode : Constant
Frame rate : 23.976 (23976/1000) FPS
Color space : YUV
Chroma subsampling : 4:2:0
Bit depth : 8 bits
Scan type : Progressive
Bits/(Pixel*Frame) : 0.124
Stream size : 2.92 GiB (86%)
Language : English
Default : Yes
Forced : No
Color range : Limited
Color primaries : BT.709
Transfer characteristics : BT.709
Matrix coefficients : BT.709

Audio #1
ID : 2
Format : AC-3
Format/Info : Audio Coding 3
Mode extension : CM (complete main)
Format settings, Endianness : Big
Codec ID : A_AC3
Duration : 1 h 31 min
Bit rate mode : Constant
Bit rate : 384 kb/s
Channel(s) : 6 channels
Channel positions : Front: L C R, Side: L R, LFE
Sampling rate : 48.0 kHz
Frame rate : 31.250 FPS (1536 spf)
Bit depth : 16 bits
Compression mode : Lossy
Stream size : 251 MiB (7%)
Title : AVO [Esarev]
Language : Russian
Default : Yes
Forced : No

Audio #2
ID : 3
Format : AC-3
Format/Info : Audio Coding 3
Mode extension : CM (complete main)
Format settings, Endianness : Big
Codec ID : A_AC3
Duration : 1 h 31 min
Bit rate mode : Constant
Bit rate : 384 kb/s
Channel(s) : 6 channels
Channel positions : Front: L C R, Side: L R, LFE
Sampling rate : 48.0 kHz
Frame rate : 31.250 FPS (1536 spf)
Bit depth : 16 bits
Compression mode : Lossy
Stream size : 251 MiB (7%)
Title : Original
Language : English
Default : No
Forced : No

Text #1
ID : 4
Format : UTF-8
Codec ID : S_TEXT/UTF8
Codec ID/Info : UTF-8 Plain Text
Duration : 1 h 22 min
Bit rate : 70 b/s
Count of elements : 820
Stream size : 42.8 KiB (0%)
Title : Full
Language : Russian
Default : No
Forced : No

Text #2
ID : 5
Format : UTF-8
Codec ID : S_TEXT/UTF8
Codec ID/Info : UTF-8 Plain Text
Duration : 1 h 30 min
Bit rate : 42 b/s
Count of elements : 820
Stream size : 27.9 KiB (0%)
Title : Full
Language : English
Default : No
Forced : No

Menu
00:00:00.000 : en:1
00:04:29.477 : en:2
00:09:25.022 : en:3
00:13:59.004 : en:4
00:18:55.008 : en:5
00:24:26.089 : en:6
00:31:14.956 : en:7
00:36:25.850 : en:8
00:42:16.033 : en:9
00:47:36.645 : en:10
00:52:21.304 : en:11
00:58:58.326 : en:12
01:04:30.991 : en:13
01:08:51.126 : en:14
01:13:46.129 : en:15
01:20:07.718 : en:16


Внимание! AdBlock блокирует показ скриншотов, все вопросы к разработчикам )))
Трекер:  [ 07-Мар-2017 07:00 ]

  

Скачать .torrent

Размер .torrent файла 17 KB


Размер: 3.42 GB
Хэш (hash) релиза: b615d6d5bf142a2c67922437a8c6566e73f7aea0
Подписка на обновления:

Торренты, похожие на Другой мир: Войны крови Underworld: Blood Wars скачать торрент

Форум Название Автор Размер S L Добавлен
Зарубежные фильмы 2016-2019 (Новинки зарубежного кино) ·%· Другой мир: Войны крови / Underworld: Blood Wars (2016) BDRip 1080p от New-Team & qqss44 | Лицензия Galfimbul 61668971345.74 GB 0 0 1570945828

08:50

13-Окт-19

Зарубежные фильмы 2016-2019 (Новинки зарубежного кино) ·%· Другой мир: Войны крови / Underworld: Blood Wars (2016) WEB-DLRip 720p от SuperMin | D | Open Matte Galfimbul 34860651573.25 GB 0 0 1559064016

20:20

28-Май-19

Зарубежные фильмы до 2016 ·· Другой мир: Войны крови / Underworld: Blood Wars (Анна Ферстер / Anna Foerster) [2016, США, ужасы, боевик, UHD Blu-ray disc 2160p] [EUR] Dub + Sub Rus, Eng + Original Eng Galfimbul 5297163466849.33 GB 0 0 1517034953

09:35

27-Янв-18

Зарубежные фильмы до 2016 ·· Другой мир: Войны крови / Underworld: Blood Wars (Анна Ферстер / Anna Foerster) [2016, США, ужасы, боевик, BD> DVD5(Custom)] DUB + Sub Rus / Eng + Original Eng Galfimbul 46665953284.35 GB 0 0 1501356973

22:36

29-Июл-17

Зарубежные фильмы до 2016 ·· Другой мир: Войны крови / Underworld: Blood Wars (Анна Ферстер / Anna Foerster) [2016, США, ужасы, боевик, Blu-ray disc 1080p] [EUR] Dub + Sub Rus, Eng + Original Eng Galfimbul 3194184648129.75 GB 0 0 1490895973

20:46

30-Мар-17

Зарубежные фильмы 2016-2019 (Новинки зарубежного кино) ·· Другой мир: Войны крови / Underworld: Blood Wars (Анна Ферстер / Anna Foerster) [2016, США, ужасы, боевик, BDRip-AVC] Dub + Original Eng + Sub (Rus, Eng) Galfimbul 15615249501.45 GB 0 0 1490389291

00:01

25-Мар-17

Зарубежные фильмы 2016-2019 (Новинки зарубежного кино) ·· Другой мир: Войны крови / Underworld: Blood Wars (Анна Ферстер / Anna Foerster) [2016, США, ужасы, боевик, BDRip-AVC] VO Galfimbul 780843943745 MB 0 0 1489861624

21:27

18-Мар-17

Зарубежные фильмы до 2016 ·· Другой мир: Войны крови / Underworld: Blood Wars (Анна Ферстер / Anna Foerster) [2016, США, ужасы, боевик, BDRip 720p] MVO + VO + Sub Rus, Eng + Original Eng Galfimbul 49598901624.62 GB 0 0 1489757030

16:23

17-Мар-17

Зарубежные фильмы до 2016 ·· Другой мир: Войны крови / Underworld: Blood Wars (Анна Ферстер / Anna Foerster) [2016, США, ужасы, боевик, BDRip 1080p] MVO + VO + Sub Rus, Eng + Original Eng Galfimbul 78551191997.32 GB 0 0 1489757023

16:23

17-Мар-17

Зарубежные фильмы 2016-2019 (Новинки зарубежного кино) ·· Другой мир: Войны крови / Underworld: Blood Wars (Анна Ферстер / Anna Foerster) [2016, США, ужасы, боевик, BDRip 720p] Galfimbul 49598900554.62 GB 0 0 1489666439

15:13

16-Мар-17

Зарубежные фильмы 2016-2019 (Новинки зарубежного кино) ·· Другой мир: Войны крови / Underworld: Blood Wars (Анна Ферстер / Anna Foerster) [2016, США, ужасы, боевик, BDRip 1080p] Galfimbul 78551190967.32 GB 0 0 1489666432

15:13

16-Мар-17

Зарубежные фильмы 2016-2019 (Новинки зарубежного кино) ·· Другой мир: Войны крови / Underworld: Blood Wars (Анна Ферстер / Anna Foerster) [2016, США, ужасы, боевик, WEB-DLRip] VO (Есарев) + Original + Subs (rus,eng) Galfimbul 18314030511.71 GB 0 0 1488887847

14:57

7-Мар-17

Зарубежные фильмы 2016-2019 (Новинки зарубежного кино) ·· Другой мир: Войны крови / Underworld: Blood Wars (Анна Ферстер) [2016 г., Ужасы, боевик, WEB-DL 720р] А Galfimbul 33359743423.11 GB 0 0 1488859994

07:13

7-Мар-17

Зарубежные фильмы 2016-2019 (Новинки зарубежного кино) ·· Другой мир: Войны крови / Underworld: Blood Wars (Анна Ферстер) [2016 г., Ужасы, боевик, WEB-DLRip] DUB | Чистый звук Galfimbul 14679040001.37 GB 0 0 1487586054

13:20

20-Фев-17

Зарубежные фильмы 2016-2019 (Новинки зарубежного кино) ·· Другой мир: Войны крови / Underworld: Blood Wars (Анна Ферстер) [2016 г., Ужасы, боевик, WEB-DL 720p] DUB | Чистый звук Galfimbul 33932021713.16 GB 0 0 1487586050

13:20

20-Фев-17

Зарубежные фильмы до 2016 ·· Другой мир: Войны крови / Underworld: Blood Wars (Анна Ферстер / Anna Foerster) [2016, США, ужасы, боевик, WEB-DL 1080p] MVO + Original Eng Galfimbul 35353163923.29 GB 0 0 1487259892

18:44

16-Фев-17

Зарубежные фильмы 2016-2019 (Новинки зарубежного кино) ·· Другой мир: Войны крови / Underworld: Blood Wars (Анна Ферстер / Anna Foerster) [2016, США, ужасы, боевик, WEB-DLRip] MVO (Paradox" & Omskbird) Galfimbul 15311912961.43 GB 0 0 1487102615

23:03

14-Фев-17

Зарубежные фильмы 2016-2019 (Новинки зарубежного кино) ·· Другой мир: Войны крови / Underworld: Blood Wars (Анна Ферстер / Anna Foerster) [2016, США, ужасы, боевик, WEB-DLRip] Dub (TS) Galfimbul 15658065921.46 GB 0 0 1486891743

12:29

12-Фев-17

Зарубежные фильмы 2016-2019 (Новинки зарубежного кино) ·· Другой мир: Войны крови / Underworld: Blood Wars (Анна Ферстер) [2016 г., Ужасы, боевик, WEB-DL 720p] Звук с TS Galfimbul 31785836232.96 GB 0 0 1486736699

17:24

10-Фев-17

Еще никто не оставлял запись к записи скачать торрент Другой мир: Войны крови Underworld: Blood Wars . Будь первым!

!Обратная связь