Скачать через торрент Другой мир: Войны крови Underworld: Blood Wars Фильм бесплатно в хорошем качестве torrent

Скачивайте на UnionPeer.org фильмы через торрент без регистрации. Новинки кино в хорошем качестве через торрент. На UnionPeer.org можно скачать через торрент фильмы 2014 и 2015 годов. Самые новые фильмы.

Скачать торрент Другой мир: Войны крови Underworld: Blood Wars бесплатно через .torrent фильм мультфильм сериал

Статистика раздачи
Размер:  4.62 GB   |    Зарегистрирован:  6 лет 11 месяцев   |    .torrent скачан:  102 раза   |   
Раздают:  1  
 

Скачать Другой мир: Войны крови / Underworld: Blood Wars (Анна Ферстер / Anna Foerster) [2016, США, ужасы, боевик, BDRip 720p] MVO + VO + Sub Rus, Eng + Original Eng через torrent

 
 
Автор Сообщение

Galfimbul

avatar Galfimbul


Другой мир: Войны крови / Underworld: Blood Wars

Страна: США
Жанр: ужасы, боевик
Год выпуска: 2016
Продолжительность: 01:31:32

Перевод 1: Любительский (многоголосый закадровый) "Paradox" & Omskbird records
Перевод 2: Одноголосый закадровый Д. Есарев
Cубтитры: Русские, Английские
Оригинальная аудиодорожка: английский

Режиссер: Анна Ферстер / Anna Foerster

В ролях: Кейт Бекинсейл, Тео Джеймс, Тобайас Мензис, Лара Пулвер, Чарльз Дэнс, Джеймс Фолкнер, Петер Андерссон, Клементайн Николсон, Брэдли Джеймс, Дэйзи Хэд

Описание: Воительница-вампир Селена вступает в свой последний и решающий бой между оборотнями и кланом вампиров, который предал ее.

<div class="post-box">Скачать сэмпл</div>

Тип релиза: BDRip 720p
Контейнер: MKV

Видео: MPEG-4 AVC, 4943 Кбит/с, 1280x534, 23,976 fps
Аудио 1: Rus, AC3, 384 kb/s (6 ch), 48 kHz
Аудио 2: Rus, AC3, 384 kb/s (6 ch), 48 kHz
Аудио 3: Eng, DTS, 1509 kb/s (6 ch), 48 kHz
Общее
Уникальный идентификатор : 172989682826862806231049248830868315262 (0x822499DC9E7E592195CE23BD227E5C7E)
Полное имя : Underworld.Blood.Wars.2016.BDRip.720p.mkv
Формат : Matroska
Версия формата : Version 4 / Version 2
Размер файла : 4,62 Гбайт
Продолжительность : 1 ч. 31 м.
Общий поток : 7200 Кбит/сек
Дата кодирования : UTC 2017-03-16 12:52:32
Программа кодирования : mkvmerge v9.9.0 ('Pick Up') 64bit
Библиотека кодирования : libebml v1.3.4 + libmatroska v1.4.5

Видео
Идентификатор : 1
Формат : AVC
Формат/Информация : Advanced Video Codec
Профиль формата : [email protected]
Параметр CABAC формата : Да
Параметр ReFrames формата : 9 кадров
Идентификатор кодека : V_MPEG4/ISO/AVC
Продолжительность : 1 ч. 31 м.
Битрейт : 4943 Кбит/сек
Ширина : 1280 пикселей
Высота : 534 пикселя
Соотношение сторон : 2,40:1
Режим частоты кадров : Постоянный
Частота кадров : 23,976 (24000/1001) кадра/сек
Цветовое пространство : YUV
Субдискретизация насыщенности : 4:2:0
Битовая глубина : 8 бит
Тип развёртки : Прогрессивная
Бит/(Пиксели*Кадры) : 0.302
Размер потока : 3,16 Гбайт (68%)
Библиотека кодирования : x264 core 149 r2771+45 509cceb 7mod [8-bit@all X86_64]
Настройки программы : cabac=1 / ref=9 / deblock=1:-3:-3 / analyse=0x3:0x113 / me=umh / subme=11 / psy=1 / fade_compensate=0.00 / psy_rd=1.00:0.05 / mixed_ref=1 / me_range=32 / chroma_me=1 / trellis=2 / 8x8dct=1 / cqm=0 / deadzone=21,11 / fast_pskip=0 / chroma_qp_offset=-2 / threads=12 / lookahead_threads=2 / sliced_threads=0 / nr=0 / decimate=1 / interlaced=0 / bluray_compat=0 / constrained_intra=0 / fgo=0 / bframes=8 / b_pyramid=2 / b_adapt=2 / b_bias=0 / direct=3 / weightb=1 / open_gop=0 / weightp=2 / keyint=250 / keyint_min=23 / scenecut=40 / intra_refresh=0 / rc_lookahead=40 / rc=crf / mbtree=0 / crf=16.0000 / qcomp=0.60 / qpmin=0:0:0 / qpmax=69:69:69 / qpstep=4 / vbv_maxrate=30000 / vbv_bufsize=30000 / crf_max=0.0 / nal_hrd=none / filler=0 / ip_ratio=1.40 / pb_ratio=1.30 / aq=3:1.00 / aq-sensitivity=10.00 / aq-factor=1.00:1.00:1.00 / aq2=0 / aq3=0
Язык : English
Default : Да
Forced : Нет
Цветовой диапазон : Limited
Коэффициенты матрицы : BT.709

Аудио #1
Идентификатор : 2
Формат : AC-3
Формат/Информация : Audio Coding 3
Расширение режима : CM (complete main)
Параметр Endianness формата : Big
Идентификатор кодека : A_AC3
Продолжительность : 1 ч. 31 м.
Вид битрейта : Постоянный
Битрейт : 384 Кбит/сек
Каналы : 6 каналов
Расположение каналов : Front: L C R, Side: L R, LFE
Частота : 48,0 КГц
Частота кадров : 31,250 кадров/сек (1536 spf)
Метод сжатия : С потерями
Размер потока : 252 Мбайт (5%)
Заголовок : MVO, "Paradox" & Omskbird records
Язык : Russian
Default : Да
Forced : Нет

Аудио #2
Идентификатор : 3
Формат : AC-3
Формат/Информация : Audio Coding 3
Расширение режима : CM (complete main)
Параметр Endianness формата : Big
Идентификатор кодека : A_AC3
Продолжительность : 1 ч. 31 м.
Вид битрейта : Постоянный
Битрейт : 384 Кбит/сек
Каналы : 6 каналов
Расположение каналов : Front: L C R, Side: L R, LFE
Частота : 48,0 КГц
Частота кадров : 31,250 кадров/сек (1536 spf)
Метод сжатия : С потерями
Размер потока : 251 Мбайт (5%)
Заголовок : VO, Д. Есарев
Язык : Russian
Default : Нет
Forced : Нет

Аудио #3
Идентификатор : 4
Формат : DTS
Формат/Информация : Digital Theater Systems
Режим : 16
Параметр Endianness формата : Big
Идентификатор кодека : A_DTS
Продолжительность : 1 ч. 31 м.
Вид битрейта : Постоянный
Битрейт : 1509 Кбит/сек
Каналы : 6 каналов
Расположение каналов : Front: L C R, Side: L R, LFE
Частота : 48,0 КГц
Частота кадров : 93,750 кадра/сек (512 spf)
Битовая глубина : 24 бит
Метод сжатия : С потерями
Размер потока : 988 Мбайт (21%)
Язык : English
Default : Нет
Forced : Нет

Текст #1
Идентификатор : 5
Формат : UTF-8
Идентификатор кодека : S_TEXT/UTF8
Идентификатор кодека/Информация : UTF-8 Plain Text
Продолжительность : 1 ч. 22 м.
Битрейт : 70 бит/сек
Count of elements : 820
Размер потока : 42,8 Кбайт (0%)
Язык : Russian
Default : Нет
Forced : Нет

Текст #2
Идентификатор : 6
Формат : UTF-8
Идентификатор кодека : S_TEXT/UTF8
Идентификатор кодека/Информация : UTF-8 Plain Text
Продолжительность : 1 ч. 30 м.
Битрейт : 42 бит/сек
Count of elements : 820
Размер потока : 27,9 Кбайт (0%)
Язык : English
Default : Нет
Forced : Нет

Меню
00:00:00.000 : en:00:00:00.000
00:04:30.479 : en:00:04:30.479
00:09:25.315 : en:00:09:25.315
00:13:59.964 : en:00:13:59.964
00:18:56.010 : en:00:18:56.010
00:24:27.091 : en:00:24:27.091
00:31:15.957 : en:00:31:15.957
00:36:26.810 : en:00:36:26.810
00:42:17.034 : en:00:42:17.034
00:47:37.646 : en:00:47:37.646
00:52:22.181 : en:00:52:22.181
00:58:59.327 : en:00:58:59.327
01:04:31.659 : en:01:04:31.659
01:08:52.128 : en:01:08:52.128
01:13:47.131 : en:01:13:47.131
01:20:08.512 : en:01:20:08.512


Внимание! AdBlock блокирует показ скриншотов, все вопросы к разработчикам )))
Трекер:  [ 17-Мар-2017 15:30 ]

  

Скачать .torrent

Размер .torrent файла 12 KB


Размер: 4.62 GB
Хэш (hash) релиза: 1852766730ab42250556d311c611d8bea7fdd114
Подписка на обновления:

Торренты, похожие на Другой мир: Войны крови Underworld: Blood Wars скачать торрент

Форум Название Автор Размер S L Добавлен
Зарубежные фильмы 2016-2019 (Новинки зарубежного кино) ·%· Другой мир: Войны крови / Underworld: Blood Wars (2016) BDRip 1080p от New-Team & qqss44 | Лицензия Galfimbul 61668971345.74 GB 0 0 1570945828

08:50

13-Окт-19

Зарубежные фильмы 2016-2019 (Новинки зарубежного кино) ·%· Другой мир: Войны крови / Underworld: Blood Wars (2016) WEB-DLRip 720p от SuperMin | D | Open Matte Galfimbul 34860651573.25 GB 0 0 1559064016

20:20

28-Май-19

Зарубежные фильмы до 2016 ·· Другой мир: Войны крови / Underworld: Blood Wars (Анна Ферстер / Anna Foerster) [2016, США, ужасы, боевик, UHD Blu-ray disc 2160p] [EUR] Dub + Sub Rus, Eng + Original Eng Galfimbul 5297163466849.33 GB 0 0 1517034953

09:35

27-Янв-18

Зарубежные фильмы до 2016 ·· Другой мир: Войны крови / Underworld: Blood Wars (Анна Ферстер / Anna Foerster) [2016, США, ужасы, боевик, BD> DVD5(Custom)] DUB + Sub Rus / Eng + Original Eng Galfimbul 46665953284.35 GB 0 0 1501356973

22:36

29-Июл-17

Зарубежные фильмы до 2016 ·· Другой мир: Войны крови / Underworld: Blood Wars (Анна Ферстер / Anna Foerster) [2016, США, ужасы, боевик, Blu-ray disc 1080p] [EUR] Dub + Sub Rus, Eng + Original Eng Galfimbul 3194184648129.75 GB 0 0 1490895973

20:46

30-Мар-17

Зарубежные фильмы 2016-2019 (Новинки зарубежного кино) ·· Другой мир: Войны крови / Underworld: Blood Wars (Анна Ферстер / Anna Foerster) [2016, США, ужасы, боевик, BDRip-AVC] Dub + Original Eng + Sub (Rus, Eng) Galfimbul 15615249501.45 GB 0 0 1490389291

00:01

25-Мар-17

Зарубежные фильмы 2016-2019 (Новинки зарубежного кино) ·· Другой мир: Войны крови / Underworld: Blood Wars (Анна Ферстер / Anna Foerster) [2016, США, ужасы, боевик, BDRip-AVC] VO Galfimbul 780843943745 MB 0 0 1489861624

21:27

18-Мар-17

Зарубежные фильмы до 2016 ·· Другой мир: Войны крови / Underworld: Blood Wars (Анна Ферстер / Anna Foerster) [2016, США, ужасы, боевик, BDRip 1080p] MVO + VO + Sub Rus, Eng + Original Eng Galfimbul 78551191997.32 GB 0 0 1489757023

16:23

17-Мар-17

Зарубежные фильмы 2016-2019 (Новинки зарубежного кино) ·· Другой мир: Войны крови / Underworld: Blood Wars (Анна Ферстер / Anna Foerster) [2016, США, ужасы, боевик, BDRip 720p] Galfimbul 49598900554.62 GB 0 0 1489666439

15:13

16-Мар-17

Зарубежные фильмы 2016-2019 (Новинки зарубежного кино) ·· Другой мир: Войны крови / Underworld: Blood Wars (Анна Ферстер / Anna Foerster) [2016, США, ужасы, боевик, BDRip 1080p] Galfimbul 78551190967.32 GB 0 0 1489666432

15:13

16-Мар-17

Зарубежные фильмы 2016-2019 (Новинки зарубежного кино) ·· Другой мир: Войны крови / Underworld: Blood Wars (Анна Ферстер / Anna Foerster) [2016, США, ужасы, боевик, WEB-DLRip] VO (Есарев) + Original + Subs (rus,eng) Galfimbul 18314030511.71 GB 0 0 1488887847

14:57

7-Мар-17

Зарубежные фильмы 2016-2019 (Новинки зарубежного кино) ·· Другой мир: Войны крови / Underworld: Blood Wars (Анна Ферстер) [2016 г., Ужасы, боевик, WEB-DL 1080р] А Galfimbul 36672368083.42 GB 0 0 1488860003

07:13

7-Мар-17

Зарубежные фильмы 2016-2019 (Новинки зарубежного кино) ·· Другой мир: Войны крови / Underworld: Blood Wars (Анна Ферстер) [2016 г., Ужасы, боевик, WEB-DL 720р] А Galfimbul 33359743423.11 GB 0 0 1488859994

07:13

7-Мар-17

Зарубежные фильмы 2016-2019 (Новинки зарубежного кино) ·· Другой мир: Войны крови / Underworld: Blood Wars (Анна Ферстер) [2016 г., Ужасы, боевик, WEB-DLRip] DUB | Чистый звук Galfimbul 14679040001.37 GB 0 0 1487586054

13:20

20-Фев-17

Зарубежные фильмы 2016-2019 (Новинки зарубежного кино) ·· Другой мир: Войны крови / Underworld: Blood Wars (Анна Ферстер) [2016 г., Ужасы, боевик, WEB-DL 720p] DUB | Чистый звук Galfimbul 33932021713.16 GB 0 0 1487586050

13:20

20-Фев-17

Зарубежные фильмы до 2016 ·· Другой мир: Войны крови / Underworld: Blood Wars (Анна Ферстер / Anna Foerster) [2016, США, ужасы, боевик, WEB-DL 1080p] MVO + Original Eng Galfimbul 35353163923.29 GB 0 0 1487259892

18:44

16-Фев-17

Зарубежные фильмы 2016-2019 (Новинки зарубежного кино) ·· Другой мир: Войны крови / Underworld: Blood Wars (Анна Ферстер / Anna Foerster) [2016, США, ужасы, боевик, WEB-DLRip] MVO (Paradox" & Omskbird) Galfimbul 15311912961.43 GB 0 0 1487102615

23:03

14-Фев-17

Зарубежные фильмы 2016-2019 (Новинки зарубежного кино) ·· Другой мир: Войны крови / Underworld: Blood Wars (Анна Ферстер / Anna Foerster) [2016, США, ужасы, боевик, WEB-DLRip] Dub (TS) Galfimbul 15658065921.46 GB 0 0 1486891743

12:29

12-Фев-17

Зарубежные фильмы 2016-2019 (Новинки зарубежного кино) ·· Другой мир: Войны крови / Underworld: Blood Wars (Анна Ферстер) [2016 г., Ужасы, боевик, WEB-DL 720p] Звук с TS Galfimbul 31785836232.96 GB 0 0 1486736699

17:24

10-Фев-17

Еще никто не оставлял запись к записи скачать торрент Другой мир: Войны крови Underworld: Blood Wars . Будь первым!

!Обратная связь