Скачать через торрент Одиссея Lodyssée Фильм бесплатно в хорошем качестве torrent

Скачивайте на UnionPeer.org фильмы через торрент без регистрации. Новинки кино в хорошем качестве через торрент. На UnionPeer.org можно скачать через торрент фильмы 2014 и 2015 годов. Самые новые фильмы.

Скачать торрент Одиссея Lodyssée бесплатно через .torrent фильм мультфильм сериал

Статистика раздачи
Размер:  1.46 GB   |    Зарегистрирован:  7 лет 2 месяца   |    .torrent скачан:  124 раза   |   
Раздают:  1  
 

Скачать Одиссея / L'odyssée / L'odyssee (Жером Салль / Jérôme Salle) [2016, Франция, приключения, биография, драма, BDRip] Dub через torrent

 
 
Автор Сообщение

Galfimbul

avatar Galfimbul


Одиссея / L'odyssée / L'odyssee
Страна: Франция
Жанр: приключения, биография, драма
Год выпуска: 2016
Продолжительность: 02:02:55

Перевод: Профессиональный (дублированный)
Cубтитры: Нет
Режиссер: Жером Салль / Jérôme Salle

В ролях: Ламбер Вильсон, Пьер Нинэ, Одри Тоту, Лоран Люка, Бенжамин Лаверн, Венсан Энен, Тибо де Монталембер, Рогер Ван Хол, Хлоя Хиршман, Адам Нилл

Описание: Есть пути, которые не отыщешь на картах. Есть цели, которые укажет только любовь. "Одиссея" - самый масштабный приключенческий проект современного французского кино. История героя, открывшего человечеству "второй космос". Его экспедиции вдохновили миллионы. Его главное путешествие осталось тайной.

Доп. информация:

Релиз от megapeer
Исх. L'Odyssée.2016.BDREMUX.1080p.mkv
Сэмпл

Качество видео: BDRip
Формат видео: AVI

Видео: 720x272 (2.65:1), 23.976 fps, XviD build 73 ~1499 kbps avg, 0.32 bit/pixel
Аудио: русский / AC3, 2 ch, 192 kbps 48 КГц - TV1000 Premium HD
GeneralComplete name : D:\Rips\L.Odyssee.2016.BDRip.1.46Gb.MegaPeer.aviFormat : AVIFormat/Info : Audio Video InterleaveFile size : 1.46 GiBDuration : 2 h 2 minOverall bit rate : 1 700 kb/s

VideoID : 0Format : MPEG-4 VisualFormat profile : Advanced Simple@L5Format settings, BVOP : 1Format settings, QPel : NoFormat settings, GMC : No warppointsFormat settings, Matrix : CustomCodec ID : XVIDCodec ID/Hint : XviDDuration : 2 h 2 minBit rate : 1 500 kb/sWidth : 720 pixelsHeight : 272 pixelsDisplay aspect ratio : 2.647Frame rate : 23.976 (24000/1001) FPSColor space : YUVChroma subsampling : 4:2:0Bit depth : 8 bitsScan type : ProgressiveCompression mode : LossyBits/(Pixel*Frame) : 0.319Stream size : 1.29 GiB (88%)Writing library : XviD 73

AudioID : 1Format : AC-3Format/Info : Audio Coding 3Mode extension : CM (complete main)Format settings, Endianness : BigCodec ID : 2000Duration : 2 h 2 minBit rate mode : ConstantBit rate : 192 kb/sChannel(s) : 2 channelsChannel positions : Front: L RSampling rate : 48.0 kHzFrame rate : 31.250 FPS (1536 spf)Bit depth : 16 bitsCompression mode : LossyStream size : 169 MiB (11%)Alignment : Aligned on interleavesInterleave, duration : 64 ms (1.53 video frames)Interleave, preload duratio : 192 msTitle : D



Внимание! AdBlock блокирует показ скриншотов, все вопросы к разработчикам )))

Трекер:  [ 14-Мар-2017 13:00 ]

  

Скачать .torrent

Размер .torrent файла 15 KB


Размер: 1.46 GB
Хэш (hash) релиза: b6245b9cc3dc9c425eb97ba1244009f55ae42c08
Подписка на обновления:

Еще никто не оставлял запись к записи скачать торрент Одиссея Lodyssée . Будь первым!

!Обратная связь