Скачать через торрент Одиссея Lodyssée Фильм бесплатно в хорошем качестве torrent

Скачивайте на UnionPeer.org фильмы через торрент без регистрации. Новинки кино в хорошем качестве через торрент. На UnionPeer.org можно скачать через торрент фильмы 2014 и 2015 годов. Самые новые фильмы.

Скачать торрент Одиссея Lodyssée бесплатно через .torrent фильм мультфильм сериал

Статистика раздачи
Размер:  3.66 GB   |    Зарегистрирован:  6 лет 4 месяца   |    .torrent скачан:  109 раз   |   
Раздают:  1  
 

Скачать Одиссея / L'odyssée / L'odyssee (Жером Салль / Jérôme Salle) [2016, Франция, приключения, биография, драма, BDRip-AVC] Dub + Fre, Eng Sub + Original Fre через torrent

 
 
Автор Сообщение

Galfimbul

avatar Galfimbul


Одиссея / L'odyssée / L'odyssee

Слоган: «One of the biggest productions in the history of European cinema!»
Страна: Франция
Жанр: приключения, биография, драма
Год выпуска: 2016
Продолжительность: 02:02:55

Перевод: Профессиональный (дублированный) TV1000 Premium HD
Оригинальная аудиодорожка: Французский
Субтитры: Французские (Форсированные, Полные), Английские (Полные)Режиссер: Жером Салль / Jérôme SalleВ ролях: Ламбер Вильсон, Пьер Нинэ, Одри Тоту, Лоран Люка, Бенжамин Лаверн, Венсан Энен, Тибо де Монталембер, Рогер Ван Хол, Хлоя Хиршман, Адам Нилл, Оливье Гальфион, Микаэль Бундред, Кевин Отто, Доннет Дюма...Описание: Есть пути, которые не отыщешь на картах. Есть цели, которые укажет только любовь. «Одиссея» — самый масштабный приключенческий проект современного французского кино. История героя, открывшего человечеству «второй космос». Его экспедиции вдохновили миллионы. Его главное путешествие осталось тайной.

Первопроходец. Мечтатель. Бунтарь. Легендарный Жак-Ив Кусто: его корабль, его открытия, его настоящая Одиссея.Доп. информация: | IMDB | КиноПоиск | Сэмпл | Качество видео: BDRip-AVC
Формат видео: MKV

Видео: AVC, 1140x430, 3426 kbps, 23.976 fps, 0.291 bit/pixel
Аудио 1: AC3 Dolby Digital, 3/2 (L,C,R,l,r) + LFE ch, 48.0 KHz, 384 Kbps
Аудио 2: AC3 Dolby Digital, 3/2 (L,C,R,l,r) + LFE ch, 48.0 KHz, 448 Kbps
Формат субтитров: softsub (SRT)
<div class="sp-wrap">
<div class="sp-head folded">x264</div>
<div class="sp-body">
raw [info]: 1140x430p 1:1 @ 24000/1001 fps (cfr)
x264 [info]: using SAR=1/1
x264 [info]: using cpu capabilities: MMX2 SSE2Fast SSSE3 SSE4.2 AVX
x264 [info]: profile High, level 4.1
x264 [info]: frame I:1276 Avg QP:14.30 size: 80983
x264 [info]: frame P:34421 Avg QP:15.83 size: 36340
x264 [info]: frame B:141140 Avg QP:17.78 size: 12784
x264 [info]: consecutive B-frames: 1.3% 0.8% 4.7% 20.6% 18.1% 35.6% 7.6% 3.6% 1.7% 1.0% 1.1% 0.9% 1.2% 1.4% 0.3% 0.2%
x264 [info]: mb I I16..4: 19.8% 55.5% 24.6%
x264 [info]: mb P I16..4: 2.8% 12.7% 3.3% P16..4: 26.6% 27.7% 20.7% 0.0% 0.0% skip: 6.1%
x264 [info]: mb B I16..4: 0.1% 1.3% 0.4% B16..8: 35.5% 17.7% 6.1% direct: 7.1% skip:31.7% L0:46.7% L1:37.5% BI:15.8%
x264 [info]: 8x8 transform intra:66.4% inter:40.8%
x264 [info]: coded y,uvDC,uvAC intra: 92.9% 89.2% 78.2% inter: 31.6% 24.1% 10.2%
x264 [info]: i16 v,h,dc,p: 15% 9% 34% 41%
x264 [info]: i8 v,h,dc,ddl,ddr,vr,hd,vl,hu: 10% 15% 17% 7% 10% 9% 11% 9% 12%
x264 [info]: i4 v,h,dc,ddl,ddr,vr,hd,vl,hu: 8% 23% 5% 8% 12% 10% 12% 9% 13%
x264 [info]: i8c dc,h,v,p: 48% 23% 15% 14%
x264 [info]: Weighted P-Frames: Y:5.6% UV:2.5%
x264 [info]: ref P L0: 39.8% 9.0% 18.5% 7.1% 7.2% 4.6% 4.8% 2.3% 2.6% 1.8% 2.2% 0.1% 0.0%
x264 [info]: ref B L0: 62.4% 13.6% 7.8% 4.5% 3.3% 3.0% 2.3% 1.6% 1.0% 0.4%
x264 [info]: ref B L1: 93.0% 7.0%
x264 [info]: kb/s:3425.91
General
Unique ID : 252941815668425946834779167853872654530 (0xBE4AD25AD2B396859DF5FD325683A8C2)
Complete name : L'odyssee (2016).mkv
Format : Matroska
Format version : Version 4 / Version 2
File size : 3.66 GiB
Duration : 2 h 2 min
Overall bit rate : 4 261 kb/s
Movie name : Одиссея / L'odyssée (2016)
Encoded date : UTC 2018-01-12 23:14:08
Writing application : mkvmerge v8.1.0 ('Psychedelic Postcard') 64bit
Writing library : libebml v1.3.1 + libmatroska v1.4.2
Cover : Yes
Attachments : cover.jpg

Video
ID : 1
Format : AVC
Format/Info : Advanced Video Codec
Format profile : [email protected]
Format settings : CABAC / 11 Ref Frames
Format settings, CABAC : Yes
Format settings, ReFrames : 11 frames
Codec ID : V_MPEG4/ISO/AVC
Duration : 2 h 2 min
Bit rate : 3 426 kb/s
Width : 1 140 pixels
Height : 430 pixels
Display aspect ratio : 2.651
Frame rate mode : Constant
Frame rate : 23.976 (24000/1001) FPS
Color space : YUV
Chroma subsampling : 4:2:0
Bit depth : 8 bits
Scan type : Progressive
Bits/(Pixel*Frame) : 0.291
Stream size : 2.94 GiB (80%)
Title : L'odyssée (2016) By optik.1557
Writing library : x264 core 152 r2851kMod ba24899
Encoding settings : cabac=1 / ref=11 / deblock=1:-2:-1 / analyse=0x3:0x113 / me=umh / subme=10 / psy=1 / fade_compensate=0.00 / psy_rd=1.03:0.19 / mixed_ref=1 / me_range=32 / chroma_me=1 / trellis=2 / 8x8dct=1 / cqm=0 / deadzone=21,11 / fast_pskip=0 / chroma_qp_offset=-3 / threads=6 / lookahead_threads=1 / sliced_threads=0 / nr=0 / decimate=1 / interlaced=0 / bluray_compat=0 / constrained_intra=0 / bframes=15 / b_pyramid=2 / b_adapt=2 / b_bias=0 / direct=1 / weightb=1 / open_gop=0 / weightp=2 / keyint=250 / keyint_min=23 / scenecut=40 / intra_refresh=0 / rc_lookahead=60 / rc=crf / mbtree=0 / crf=17.1400 / qcomp=0.60 / qpmin=0 / qpmax=69 / qpstep=4 / vbv_maxrate=50000 / vbv_bufsize=62500 / crf_max=0.0 / nal_hrd=none / filler=0 / ip_ratio=1.40 / pb_ratio=1.30 / aq=3:0.85
Language : French
Default : Yes
Forced : No
Color range : Limited
Color primaries : BT.709
Transfer characteristics : BT.709
Matrix coefficients : BT.709

Audio #1
ID : 2
Format : AC-3
Format/Info : Audio Coding 3
Codec ID : A_AC3
Duration : 2 h 2 min
Bit rate mode : Constant
Bit rate : 384 kb/s
Channel(s) : 6 channels
Channel positions : Front: L C R, Side: L R, LFE
Sampling rate : 48.0 kHz
Frame rate : 31.250 FPS (1536 SPF)
Bit depth : 16 bits
Compression mode : Lossy
Stream size : 338 MiB (9%)
Title : Дубляж (TV1000 Premium HD)
Language : Russian
Service kind : Complete Main
Default : Yes
Forced : No

Audio #2
ID : 3
Format : AC-3
Format/Info : Audio Coding 3
Codec ID : A_AC3
Duration : 2 h 2 min
Bit rate mode : Constant
Bit rate : 448 kb/s
Channel(s) : 6 channels
Channel positions : Front: L C R, Side: L R, LFE
Sampling rate : 48.0 kHz
Frame rate : 31.250 FPS (1536 SPF)
Bit depth : 16 bits
Compression mode : Lossy
Stream size : 394 MiB (11%)
Title : Original
Language : French
Service kind : Complete Main
Default : No
Forced : No

Text #1
ID : 4
Format : UTF-8
Codec ID : S_TEXT/UTF8
Codec ID/Info : UTF-8 Plain Text
Duration : 1 h 44 min
Bit rate : 9 b/s
Count of elements : 222
Stream size : 7.37 KiB (0%)
Title : Forced
Language : French
Default : No
Forced : No

Text #2
ID : 5
Format : UTF-8
Codec ID : S_TEXT/UTF8
Codec ID/Info : UTF-8 Plain Text
Duration : 1 h 58 min
Bit rate : 43 b/s
Count of elements : 1362
Stream size : 37.3 KiB (0%)
Title : Full
Language : French
Default : No
Forced : No

Text #3
ID : 6
Format : UTF-8
Codec ID : S_TEXT/UTF8
Codec ID/Info : UTF-8 Plain Text
Duration : 1 h 57 min
Bit rate : 33 b/s
Count of elements : 1271
Stream size : 28.9 KiB (0%)
Title : Full
Language : English
Default : No
Forced : No

Menu
00:00:00.000 : en:Chapter 1
00:06:36.813 : en:Chapter 2
00:14:39.962 : en:Chapter 3
00:24:32.304 : en:Chapter 4
00:34:20.058 : en:Chapter 5
00:43:29.898 : en:Chapter 6
00:53:51.228 : en:Chapter 7
01:05:26.297 : en:Chapter 8
01:18:12.771 : en:Chapter 9
01:31:57.595 : en:Chapter 10
01:44:52.411 : en:Chapter 11
01:56:21.015 : en:Chapter 12</div>
</div>


Внимание! AdBlock блокирует показ скриншотов, все вопросы к разработчикам )))

Трекер:  [ 13-Янв-2018 12:30 ]

  

Скачать .torrent

Размер .torrent файла 18 KB


Размер: 3.66 GB
Хэш (hash) релиза: ec5e2d1e0d56451a13aabb5827a3af1045f0e28c
Подписка на обновления:

Еще никто не оставлял запись к записи скачать торрент Одиссея Lodyssée . Будь первым!

!Обратная связь