Скачать через торрент Скрытые фигуры Hidden Figures Фильм бесплатно в хорошем качестве torrent

Скачивайте на UnionPeer.org фильмы через торрент без регистрации. Новинки кино в хорошем качестве через торрент. На UnionPeer.org можно скачать через торрент фильмы 2014 и 2015 годов. Самые новые фильмы.

Скачать торрент Скрытые фигуры Hidden Figures бесплатно через .torrent фильм мультфильм сериал

Статистика раздачи
Размер:  8.67 GB   |    Зарегистрирован:  6 лет 10 месяцев   |    .torrent скачан:  204 раза   |   
Раздают:  1  
 

Скачать Скрытые фигуры / Hidden Figures (Тед Мелфи / Theodore Melfi) [2016, США, драма, биография, история, BDRip 1080p] iTunes через torrent

 
 
Автор Сообщение

Galfimbul

avatar Galfimbul


Скрытые фигуры /Hidden Figures

Год выхода: 2016
Жанр: Драма
Режиссер: Тед Мелфи
В ролях: Тараджи П. Хенсон, Октавия Спенсер, Жанель Монэ, Кевин Костнер, Кирстен Данст, Джим Парсонс, Махершала Али, Элдис Ходж, Глен Пауэлл, Кимберли Куинн

О фильме:
Команда афро-американок проводит для НАСА ряд математических вычислений, необходимых для запуска первой космической миссии.



Страна: США, Chernin Entertainment, Fox 2000 Pictures, Levantine Films
Продолжительность: 02:06:43
Перевод: Дублированный [iTunes]

Файл
Кодек: AVC
Качество: BDRip 1080p
Видео: AVC, 1920x804, 23,976 fps, ~8128 kb/s
Аудио #1: AC-3, 48.0 KHz, 6 ch, 384 Kbps | Русский [iTunes]
Аудио #2: AC-3, 48.0 KHz, 6 ch, 640 Kbps | Английский
Аудио #3: AC-3, 48.0 KHz, 2 ch, 192 Kbps | Украинский [iTunes]
Субтитры: Russian, Ukrainian, English, Spanish, French, Portuguese, Arabic, Bulgarian, Chinese, Croatian, Czech, Greek, Hebrew, Hindi, Hungarian, Icelandic, Indonesian, Korean, Malay, Romanian, Serbian, Slovak, Slovenian, Thai, Turkish, Vietnamese

Релиз от: Wanterlude

Семпл
x264 [info]: frame I:1644 Avg QP:13.73 size:218657
x264 [info]: frame P:36879 Avg QP:16.34 size: 84947
x264 [info]: frame B:143768 Avg QP:18.23 size: 29353

General
Unique ID : 238195071837787398173982662395706371172 (0xB332B3BFD385695785823A648C8A6C64)
Complete name : E:Hidden.Figures.1080p.Wanterlude.rus.mkv
Format : Matroska
Format version : Version 4 / Version 2
File size : 8.67 GiB
Duration : 2 h 6 min
Overall bit rate : 9 790 kb/s
Movie name : Hidden Figures | Wanterlude
Encoded date : UTC 2017-04-12 07:16:18
Writing application : mkvmerge v9.9.0 ('Pick Up') 64bit
Writing library : libebml v1.3.4 + libmatroska v1.4.5

Video
ID : 1
Format : AVC
Format/Info : Advanced Video Codec
Format profile : High@L4
Format settings, CABAC : Yes
Format settings, ReFrames : 5 frames
Codec ID : V_MPEG4/ISO/AVC
Duration : 2 h 6 min
Bit rate : 8 128 kb/s
Width : 1 920 pixels
Height : 804 pixels
Display aspect ratio : 2.40:1
Frame rate mode : Constant
Frame rate : 23.976 (24000/1001) FPS
Color space : YUV
Chroma subsampling : 4:2:0
Bit depth : 8 bits
Scan type : Progressive
Bits/(Pixel*Frame) : 0.220
Stream size : 7.18 GiB (83%)
Title : Hidden Figures | Wanterlude
Writing library : x264 core 148 r2638 7599210
Encoding settings : cabac=1 / ref=5 / deblock=1:-3:-3 / analyse=0x3:0x133 / me=umh / subme=11 / psy=1 / psy_rd=1.00:0.00 / mixed_ref=1 / me_range=32 / chroma_me=1 / trellis=2 / 8x8dct=1 / cqm=0 / deadzone=21,11 / fast_pskip=0 / chroma_qp_offset=-2 / threads=12 / lookahead_threads=2 / sliced_threads=0 / nr=0 / decimate=0 / interlaced=0 / bluray_compat=0 / constrained_intra=0 / bframes=9 / b_pyramid=2 / b_adapt=2 / b_bias=0 / direct=3 / weightb=1 / open_gop=0 / weightp=2 / keyint=240 / keyint_min=22 / scenecut=40 / intra_refresh=0 / rc=2pass / mbtree=0 / bitrate=8128 / ratetol=1.0 / qcomp=0.60 / qpmin=0 / qpmax=69 / qpstep=4 / cplxblur=20.0 / qblur=0.5 / ip_ratio=1.40 / pb_ratio=1.30 / aq=2:0.70
Default : Yes
Forced : No

Audio #1
ID : 2
Format : AC-3
Format/Info : Audio Coding 3
Mode extension : CM (complete main)
Format settings, Endianness : Big
Codec ID : A_AC3
Duration : 2 h 6 min
Bit rate mode : Constant
Bit rate : 384 kb/s
Channel(s) : 6 channels
Channel positions : Front: L C R, Side: L R, LFE
Sampling rate : 48.0 kHz
Frame rate : 31.250 FPS (1536 spf)
Bit depth : 16 bits
Compression mode : Lossy
Stream size : 348 MiB (4%)
Title : Russian | iTunes
Language : Russian
Default : Yes
Forced : No

Audio #2
ID : 3
Format : AC-3
Format/Info : Audio Coding 3
Mode extension : CM (complete main)
Format settings, Endianness : Big
Codec ID : A_AC3
Duration : 2 h 6 min
Bit rate mode : Constant
Bit rate : 192 kb/s
Channel(s) : 2 channels
Channel positions : Front: L R
Sampling rate : 48.0 kHz
Frame rate : 31.250 FPS (1536 spf)
Bit depth : 16 bits
Compression mode : Lossy
Stream size : 174 MiB (2%)
Title : Ukrainian | iTunes
Language : Ukrainian
Default : No
Forced : No

Audio #3
ID : 4
Format : AC-3
Format/Info : Audio Coding 3
Mode extension : CM (complete main)
Format settings, Endianness : Big
Codec ID : A_AC3
Duration : 2 h 6 min
Bit rate mode : Constant
Bit rate : 640 kb/s
Channel(s) : 6 channels
Channel positions : Front: L C R, Side: L R, LFE
Sampling rate : 48.0 kHz
Frame rate : 31.250 FPS (1536 spf)
Bit depth : 16 bits
Compression mode : Lossy
Stream size : 580 MiB (7%)
Title : English | Original
Language : English
Default : No
Forced : No

Text #1
ID : 5
Format : PGS
Muxing mode : zlib
Codec ID : S_HDMV/PGS
Codec ID/Info : Picture based subtitle format used on BDs/HD-DVDs
Duration : 2 h 6 min
Bit rate : 1 151 b/s
Count of elements : 133
Stream size : 1.04 MiB (0%)
Title : Forced
Language : Russian
Default : Yes
Forced : No

Text #2
ID : 6
Format : PGS
Muxing mode : zlib
Codec ID : S_HDMV/PGS
Codec ID/Info : Picture based subtitle format used on BDs/HD-DVDs
Duration : 2 h 6 min
Bit rate : 27.2 kb/s
Count of elements : 3931
Stream size : 24.5 MiB (0%)
Title : Full
Language : Russian
Default : No
Forced : No

Text #3
ID : 7
Format : PGS
Muxing mode : zlib
Codec ID : S_HDMV/PGS
Codec ID/Info : Picture based subtitle format used on BDs/HD-DVDs
Duration : 1 h 59 min
Bit rate : 1 296 b/s
Count of elements : 156
Stream size : 1.11 MiB (0%)
Title : Forced
Language : Ukrainian
Default : No
Forced : No

Text #4
ID : 8
Format : PGS
Muxing mode : zlib
Codec ID : S_HDMV/PGS
Codec ID/Info : Picture based subtitle format used on BDs/HD-DVDs
Duration : 1 h 59 min
Bit rate : 28.9 kb/s
Count of elements : 3974
Stream size : 24.6 MiB (0%)
Title : Full
Language : Ukrainian
Default : No
Forced : No

Text #5
ID : 9
Format : PGS
Muxing mode : zlib
Codec ID : S_HDMV/PGS
Codec ID/Info : Picture based subtitle format used on BDs/HD-DVDs
Duration : 2 h 5 min
Bit rate : 16.2 kb/s
Count of elements : 4862
Stream size : 14.6 MiB (0%)
Title : English-PGS
Language : English
Default : No
Forced : No

Text #6
ID : 10
Format : PGS
Muxing mode : zlib
Codec ID : S_HDMV/PGS
Codec ID/Info : Picture based subtitle format used on BDs/HD-DVDs
Duration : 2 h 6 min
Bit rate : 12.1 kb/s
Count of elements : 3916
Stream size : 10.9 MiB (0%)
Title : Spanish-PGS
Language : Spanish
Default : No
Forced : No

Text #7
ID : 11
Format : PGS
Muxing mode : zlib
Codec ID : S_HDMV/PGS
Codec ID/Info : Picture based subtitle format used on BDs/HD-DVDs
Duration : 1 h 56 min
Bit rate : 181 b/s
Count of elements : 44
Stream size : 155 KiB (0%)
Title : Spanish-FORCED-PGS
Language : Spanish
Default : No
Forced : No

Text #8
ID : 12
Format : PGS
Muxing mode : zlib
Codec ID : S_HDMV/PGS
Codec ID/Info : Picture based subtitle format used on BDs/HD-DVDs
Duration : 2 h 6 min
Bit rate : 12.5 kb/s
Count of elements : 3962
Stream size : 11.3 MiB (0%)
Title : French-PGS
Language : French
Default : No
Forced : No

Text #9
ID : 13
Format : PGS
Muxing mode : zlib
Codec ID : S_HDMV/PGS
Codec ID/Info : Picture based subtitle format used on BDs/HD-DVDs
Duration : 2 h 6 min
Bit rate : 277 b/s
Count of elements : 62
Stream size : 256 KiB (0%)
Title : French-FORCED-PGS
Language : French
Default : No
Forced : No

Text #10
ID : 14
Format : PGS
Muxing mode : zlib
Codec ID : S_HDMV/PGS
Codec ID/Info : Picture based subtitle format used on BDs/HD-DVDs
Duration : 2 h 6 min
Bit rate : 12.7 kb/s
Count of elements : 3906
Stream size : 11.5 MiB (0%)
Title : Portuguese-PGS
Language : Portuguese
Default : No
Forced : No

Text #11
ID : 15
Format : PGS
Muxing mode : zlib
Codec ID : S_HDMV/PGS
Codec ID/Info : Picture based subtitle format used on BDs/HD-DVDs
Duration : 2 h 6 min
Bit rate : 75 b/s
Count of elements : 22
Stream size : 69.6 KiB (0%)
Title : Portuguese-FORCED-PGS
Language : Portuguese
Default : No
Forced : No

Text #12
ID : 16
Format : PGS
Muxing mode : zlib
Codec ID : S_HDMV/PGS
Codec ID/Info : Picture based subtitle format used on BDs/HD-DVDs
Duration : 2 h 6 min
Bit rate : 11.1 kb/s
Count of elements : 3964
Stream size : 10.0 MiB (0%)
Title : Arabic-PGS
Language : Arabic
Default : No
Forced : No

Text #13
ID : 17
Format : PGS
Muxing mode : zlib
Codec ID : S_HDMV/PGS
Codec ID/Info : Picture based subtitle format used on BDs/HD-DVDs
Duration : 2 h 6 min
Bit rate : 11.7 kb/s
Count of elements : 3948
Stream size : 10.5 MiB (0%)
Title : Bulgarian-PGS
Language : Bulgarian
Default : No
Forced : No

Text #14
ID : 18
Format : PGS
Muxing mode : zlib
Codec ID : S_HDMV/PGS
Codec ID/Info : Picture based subtitle format used on BDs/HD-DVDs
Duration : 2 h 6 min
Bit rate : 14.4 kb/s
Count of elements : 4030
Stream size : 13.0 MiB (0%)
Title : Chinese-PGS
Language : Chinese
Default : No
Forced : No

Text #15
ID : 19
Format : PGS
Muxing mode : zlib
Codec ID : S_HDMV/PGS
Codec ID/Info : Picture based subtitle format used on BDs/HD-DVDs
Duration : 2 h 6 min
Bit rate : 12.1 kb/s
Count of elements : 3830
Stream size : 10.9 MiB (0%)
Title : Croatian-PGS
Language : Croatian
Default : No
Forced : No

Text #16
ID : 20
Format : PGS
Muxing mode : zlib
Codec ID : S_HDMV/PGS
Codec ID/Info : Picture based subtitle format used on BDs/HD-DVDs
Duration : 2 h 6 min
Bit rate : 11.9 kb/s
Count of elements : 3960
Stream size : 10.7 MiB (0%)
Title : Czech-PGS
Language : Czech
Default : No
Forced : No

Text #17
ID : 21
Format : PGS
Muxing mode : zlib
Codec ID : S_HDMV/PGS
Codec ID/Info : Picture based subtitle format used on BDs/HD-DVDs
Duration : 1 h 56 min
Bit rate : 106 b/s
Count of elements : 32
Stream size : 90.7 KiB (0%)
Title : Czech-FORCED-PGS
Language : Czech
Default : No
Forced : No

Text #18
ID : 22
Format : PGS
Muxing mode : zlib
Codec ID : S_HDMV/PGS
Codec ID/Info : Picture based subtitle format used on BDs/HD-DVDs
Duration : 2 h 6 min
Bit rate : 14.5 kb/s
Count of elements : 3956
Stream size : 13.1 MiB (0%)
Title : Greek-PGS
Language : Greek
Default : No
Forced : No

Text #19
ID : 23
Format : PGS
Muxing mode : zlib
Codec ID : S_HDMV/PGS
Codec ID/Info : Picture based subtitle format used on BDs/HD-DVDs
Duration : 2 h 6 min
Bit rate : 11.4 kb/s
Count of elements : 3960
Stream size : 10.3 MiB (0%)
Title : Hebrew-PGS
Language : Hebrew
Default : No
Forced : No

Text #20
ID : 24
Format : PGS
Muxing mode : zlib
Codec ID : S_HDMV/PGS
Codec ID/Info : Picture based subtitle format used on BDs/HD-DVDs
Duration : 2 h 6 min
Bit rate : 11.9 kb/s
Count of elements : 3976
Stream size : 10.7 MiB (0%)
Title : Hindi-PGS
Language : Hindi
Default : No
Forced : No

Text #21
ID : 25
Format : PGS
Muxing mode : zlib
Codec ID : S_HDMV/PGS
Codec ID/Info : Picture based subtitle format used on BDs/HD-DVDs
Duration : 2 s 44 ms
Bit rate : 19.9 kb/s
Count of elements : 2
Stream size : 4.96 KiB (0%)
Title : Hindi-FORCED-PGS
Language : Hindi
Default : No
Forced : No

Text #22
ID : 26
Format : PGS
Muxing mode : zlib
Codec ID : S_HDMV/PGS
Codec ID/Info : Picture based subtitle format used on BDs/HD-DVDs
Duration : 2 h 6 min
Bit rate : 9 951 b/s
Count of elements : 2746
Stream size : 8.97 MiB (0%)
Title : Hungarian-PGS
Language : Hungarian
Default : No
Forced : No

Text #23
ID : 27
Format : PGS
Muxing mode : zlib
Codec ID : S_HDMV/PGS
Codec ID/Info : Picture based subtitle format used on BDs/HD-DVDs
Duration : 2 h 5 min
Bit rate : 91 b/s
Count of elements : 22
Stream size : 84.5 KiB (0%)
Title : Hungarian-FORCED-PGS
Language : Hungarian
Default : No
Forced : No

Text #24
ID : 28
Format : PGS
Muxing mode : zlib
Codec ID : S_HDMV/PGS
Codec ID/Info : Picture based subtitle format used on BDs/HD-DVDs
Duration : 2 h 6 min
Bit rate : 11.5 kb/s
Count of elements : 3308
Stream size : 10.4 MiB (0%)
Title : Icelandic-PGS
Language : Icelandic
Default : No
Forced : No

Text #25
ID : 29
Format : PGS
Muxing mode : zlib
Codec ID : S_HDMV/PGS
Codec ID/Info : Picture based subtitle format used on BDs/HD-DVDs
Duration : 2 h 6 min
Bit rate : 12.0 kb/s
Count of elements : 3932
Stream size : 10.8 MiB (0%)
Title : Indonesian-PGS
Language : Indonesian
Default : No
Forced : No

Text #26
ID : 30
Format : PGS
Muxing mode : zlib
Codec ID : S_HDMV/PGS
Codec ID/Info : Picture based subtitle format used on BDs/HD-DVDs
Duration : 2 h 6 min
Bit rate : 9 074 b/s
Count of elements : 3952
Stream size : 8.18 MiB (0%)
Title : Korean-PGS
Language : Korean
Default : No
Forced : No

Text #27
ID : 31
Format : PGS
Muxing mode : zlib
Codec ID : S_HDMV/PGS
Codec ID/Info : Picture based subtitle format used on BDs/HD-DVDs
Duration : 2 h 6 min
Bit rate : 12.5 kb/s
Count of elements : 3956
Stream size : 11.3 MiB (0%)
Title : Malay-PGS
Language : Malay
Default : No
Forced : No

Text #28
ID : 32
Format : PGS
Muxing mode : zlib
Codec ID : S_HDMV/PGS
Codec ID/Info : Picture based subtitle format used on BDs/HD-DVDs
Duration : 2 h 6 min
Bit rate : 18.0 kb/s
Count of elements : 3970
Stream size : 16.3 MiB (0%)
Title : Chinese-PGS
Language : Chinese
Default : No
Forced : No

Text #29
ID : 33
Format : PGS
Muxing mode : zlib
Codec ID : S_HDMV/PGS
Codec ID/Info : Picture based subtitle format used on BDs/HD-DVDs
Duration : 2 h 6 min
Bit rate : 12.7 kb/s
Count of elements : 3938
Stream size : 11.5 MiB (0%)
Title : Portuguese-PGS
Language : Portuguese
Default : No
Forced : No

Text #30
ID : 34
Format : PGS
Muxing mode : zlib
Codec ID : S_HDMV/PGS
Codec ID/Info : Picture based subtitle format used on BDs/HD-DVDs
Duration : 2 h 6 min
Bit rate : 12.1 kb/s
Count of elements : 3932
Stream size : 10.9 MiB (0%)
Title : Romanian-PGS
Language : Romanian
Default : No
Forced : No

Text #31
ID : 35
Format : PGS
Muxing mode : zlib
Codec ID : S_HDMV/PGS
Codec ID/Info : Picture based subtitle format used on BDs/HD-DVDs
Duration : 2 h 6 min
Bit rate : 12.4 kb/s
Count of elements : 3970
Stream size : 11.1 MiB (0%)
Title : Serbian-PGS
Language : Serbian
Default : No
Forced : No

Text #32
ID : 36
Format : PGS
Muxing mode : zlib
Codec ID : S_HDMV/PGS
Codec ID/Info : Picture based subtitle format used on BDs/HD-DVDs
Duration : 2 h 6 min
Bit rate : 11.6 kb/s
Count of elements : 3886
Stream size : 10.4 MiB (0%)
Title : Slovak-PGS
Language : Slovak
Default : No
Forced : No

Text #33
ID : 37
Format : PGS
Muxing mode : zlib
Codec ID : S_HDMV/PGS
Codec ID/Info : Picture based subtitle format used on BDs/HD-DVDs
Duration : 2 h 6 min
Bit rate : 10.2 kb/s
Count of elements : 3050
Stream size : 9.21 MiB (0%)
Title : Slovenian-PGS
Language : Slovenian
Default : No
Forced : No

Text #34
ID : 38
Format : PGS
Muxing mode : zlib
Codec ID : S_HDMV/PGS
Codec ID/Info : Picture based subtitle format used on BDs/HD-DVDs
Duration : 2 h 6 min
Bit rate : 11.2 kb/s
Count of elements : 3982
Stream size : 10.1 MiB (0%)
Title : Thai-PGS
Language : Thai
Default : No
Forced : No

Text #35
ID : 39
Format : PGS
Muxing mode : zlib
Codec ID : S_HDMV/PGS
Codec ID/Info : Picture based subtitle format used on BDs/HD-DVDs
Duration : 58 min 33 s
Bit rate : 69 b/s
Count of elements : 10
Stream size : 30.0 KiB (0%)
Title : Thai-FORCED-PGS
Language : Thai
Default : No
Forced : No

Text #36
ID : 40
Format : PGS
Muxing mode : zlib
Codec ID : S_HDMV/PGS
Codec ID/Info : Picture based subtitle format used on BDs/HD-DVDs
Duration : 2 h 6 min
Bit rate : 11.9 kb/s
Count of elements : 3934
Stream size : 10.7 MiB (0%)
Title : Turkish-PGS
Language : Turkish
Default : No
Forced : No

Text #37
ID : 41
Format : PGS
Muxing mode : zlib
Codec ID : S_HDMV/PGS
Codec ID/Info : Picture based subtitle format used on BDs/HD-DVDs
Duration : 2 h 6 min
Bit rate : 220 b/s
Count of elements : 52
Stream size : 203 KiB (0%)
Title : Turkish-FORCED-PGS
Language : Turkish
Default : No
Forced : No

Text #38
ID : 42
Format : PGS
Muxing mode : zlib
Codec ID : S_HDMV/PGS
Codec ID/Info : Picture based subtitle format used on BDs/HD-DVDs
Duration : 2 h 6 min
Bit rate : 11.4 kb/s
Count of elements : 3938
Stream size : 10.2 MiB (0%)
Title : Vietnamese-PGS
Language : Vietnamese
Default : No
Forced : No

Text #39
ID : 43
Format : PGS
Muxing mode : zlib
Codec ID : S_HDMV/PGS
Codec ID/Info : Picture based subtitle format used on BDs/HD-DVDs
Duration : 2 h 6 min
Bit rate : 24.7 kb/s
Count of elements : 5200
Stream size : 22.3 MiB (0%)
Title : English-COMMENTARY-PGS
Language : English
Default : No
Forced : No

Text #40
ID : 44
Format : PGS
Muxing mode : zlib
Codec ID : S_HDMV/PGS
Codec ID/Info : Picture based subtitle format used on BDs/HD-DVDs
Duration : 2 h 6 min
Bit rate : 19.2 kb/s
Count of elements : 4556
Stream size : 17.3 MiB (0%)
Title : Spanish-COMMENTARY-PGS
Language : Spanish
Default : No
Forced : No

Text #41
ID : 45
Format : PGS
Muxing mode : zlib
Codec ID : S_HDMV/PGS
Codec ID/Info : Picture based subtitle format used on BDs/HD-DVDs
Duration : 2 h 6 min
Bit rate : 19.5 kb/s
Count of elements : 4562
Stream size : 17.6 MiB (0%)
Title : French-COMMENTARY-PGS
Language : French
Default : No
Forced : No

Text #42
ID : 46
Format : PGS
Muxing mode : zlib
Codec ID : S_HDMV/PGS
Codec ID/Info : Picture based subtitle format used on BDs/HD-DVDs
Duration : 2 h 6 min
Bit rate : 14.5 kb/s
Count of elements : 4562
Stream size : 13.1 MiB (0%)
Title : Korean-COMMENTARY-PGS
Language : Korean
Default : No
Forced : No

Menu
00:00:00.000 : en:Chapter 1
00:03:13.359 : en:Chapter 2
00:08:13.533 : en:Chapter 3
00:12:01.721 : en:Chapter 4
00:16:32.240 : en:Chapter 5
00:21:06.682 : en:Chapter 6
00:23:53.682 : en:Chapter 7
00:26:59.451 : en:Chapter 8
00:32:18.519 : en:Chapter 9
00:37:37.003 : en:Chapter 10
00:41:36.577 : en:Chapter 11
00:46:08.474 : en:Chapter 12
00:49:30.467 : en:Chapter 13
00:56:11.742 : en:Chapter 14
01:00:02.599 : en:Chapter 15
01:03:27.969 : en:Chapter 16
01:08:43.327 : en:Chapter 17
01:15:03.622 : en:Chapter 18
01:19:05.990 : en:Chapter 19
01:22:17.430 : en:Chapter 20
01:26:50.329 : en:Chapter 21
01:32:27.707 : en:Chapter 22
01:35:19.087 : en:Chapter 23
01:40:41.284 : en:Chapter 24
01:44:42.859 : en:Chapter 25
01:49:35.193 : en:Chapter 26
01:54:38.829 : en:Chapter 27
01:59:47.262 : en:Chapter 28


Внимание! AdBlock блокирует показ скриншотов, все вопросы к разработчикам )))
Трекер:  [ 12-Апр-2017 12:00 ]

  

Скачать .torrent

Размер .torrent файла 22 KB


Размер: 8.67 GB
Хэш (hash) релиза: 5d22e3cbe18264cb79afb7508e09e2f7dc82c57d
Подписка на обновления:

Торренты, похожие на Скрытые фигуры Hidden Figures скачать торрент

Форум Название Автор Размер S L Добавлен
Зарубежные фильмы до 2016 ·%· Скрытые фигуры / Hidden Figures (Тед Мелфи / Theodore Melfi) [2016, США, Драма, биография, история, DVD9] R5 Dub + Sub Rus + Original Eng Galfimbul 78758297607.33 GB 0 0 1530975767

18:02

7-Июл-18

Трейлеры и дополнительные материалы ·· Скрытые Фигуры / Hidden Figures (Тед Мелфи / Theodore Melfi) [2016, Драма, BDRip 720p] дополнительные материалы Galfimbul 18016896261.68 GB 0 0 1495370393

15:39

21-Май-17

Зарубежные фильмы 2016-2019 (Новинки зарубежного кино) ·· Скрытые фигуры / Hidden Figures (Тед Мелфи / Theodore Melfi) [2016, США, драма, биография, история, BDRip-AVC] Dub (iTunes) + Original Eng + Sub (Rus, Eng) Galfimbul 21950369422.04 GB 0 0 1492677280

11:34

20-Апр-17

Зарубежные фильмы до 2016 ·· Скрытые фигуры / Hidden Figures (Тед Мелфи / Theodore Melfi) [2016, США, драма, биография, история, BDRip 720p] Dub (iTunes) + Sub Rus, Eng + Original Eng Galfimbul 60754721565.66 GB 0 0 1492438967

17:22

17-Апр-17

Зарубежные фильмы 2016-2019 (Новинки зарубежного кино) ·· Скрытые фигуры / Hidden Figures (Тед Мелфи / Theodore Melfi) [2016, США, Драма, биография, история, HDRip] Dub (iTunes) + Sub Galfimbul 15669849551.46 GB 0 0 1492059630

08:00

13-Апр-17

Зарубежные фильмы до 2016 ·· Скрытые фигуры / Hidden Figures (Тед Мелфи / Theodore Melfi) [2016, США, драма, биография, история, BDRip 720p] + Sub Rus, Eng + Original Eng Galfimbul 57101404505.32 GB 0 0 1490965212

16:00

31-Мар-17

Зарубежные фильмы 2016-2019 (Новинки зарубежного кино) ·· Скрытые фигуры / Hidden Figures (Теодор Мелфи / Theodore Melfi) [2016, США, Драма, DVDRip] Original + Sub Rus (anavuajna) + Sub Eng Galfimbul 14972112811.39 GB 0 0 1490480819

01:26

26-Мар-17

Зарубежные фильмы 2016-2019 (Новинки зарубежного кино) ·· Скрытые фигуры / Hidden Figures (Тед Мелфи) [2016, драма, DVDScr] Galfimbul 21837701122.03 GB 0 0 1484631953

08:45

17-Янв-17

ty345

...негры проводят для НАСА ряд математических вычислений...?,тогда колобок повесился...

Хотите добавить комментарий к записи скачать торрент Скрытые фигуры Hidden Figures

!Обратная связь