Скачать через торрент Скрытые фигуры Hidden Figures Фильм бесплатно в хорошем качестве torrent

Скачивайте на UnionPeer.org фильмы через торрент без регистрации. Новинки кино в хорошем качестве через торрент. На UnionPeer.org можно скачать через торрент фильмы 2014 и 2015 годов. Самые новые фильмы.

Скачать торрент Скрытые фигуры Hidden Figures бесплатно через .torrent фильм мультфильм сериал

Статистика раздачи
Размер:  5.66 GB   |    Зарегистрирован:  6 лет 10 месяцев   |    .torrent скачан:  58 раз   |   
Раздают:  1  
 

Скачать Скрытые фигуры / Hidden Figures (Тед Мелфи / Theodore Melfi) [2016, США, драма, биография, история, BDRip 720p] Dub (iTunes) + Sub Rus, Eng + Original Eng через torrent

 
 
Автор Сообщение

Galfimbul

avatar Galfimbul


Скрытые фигуры / Hidden Figures

Страна: США
Студия: Chernin Entertainment, Fox 2000 Pictures, Levantine Films
Жанр: драма, биография, история
Год выпуска: 2016
Продолжительность: 02:06:43

Перевод: Профессиональный (дублированный) iTunes
Cубтитры: Rus, Eng
Оригинальная аудиодорожка: английский

Режиссер: Тед Мелфи / Theodore Melfi

В ролях: Тараджи П. Хенсон, Октавия Спенсер, Жанель Моне, Кевин Костнер, Кирстен Данст, Джим Парсонс, Махершала Али, Элдис Ходж, Глен Пауэлл

Описание: Команда афро-американок проводит для НАСА ряд математических вычислений, необходимых для запуска первой космической миссии.



Тип релиза: BDRip 720p
Контейнер: MKV

Видео: MPEG-4 AVC, 5366 Кбит/с, 1280x536, 23,976 fps
Аудио: Rus, AC3, 384 kb/s (6 ch), 48 kHz
Аудио 2: Eng, AC3, 640 kb/s (6 ch), 48 kHz
Формат субтитров: softsub (SRT)
x264 [info]: frame I:1857 Avg QP:12.61 size:110036
x264 [info]: frame P:35984 Avg QP:14.19 size: 50814
x264 [info]: frame B:144450 Avg QP:15.20 size: 21231

Format : Matroska
Format version : Version 4 / Version 2
File size : 5.66 GiB
Duration : 2 h 6 min
Overall bit rate : 6 391 kb/s
Movie name : Скрытые фигуры. (Tonik)
Encoded date : UTC 2017-04-12 09:45:50
Writing application : mkvmerge v7.1.0 ('Good Love') 64bit built on Jul 27 2014 13:06:55
Writing library : libebml v1.3.0 + libmatroska v1.4.1

Video
ID : 1
Format : AVC
Format/Info : Advanced Video Codec
Format profile : [email protected]
Format settings, CABAC : Yes
Format settings, ReFrames : 12 frames
Codec ID : V_MPEG4/ISO/AVC
Duration : 2 h 6 min
Bit rate : 5 366 kb/s
Width : 1 280 pixels
Height : 536 pixels
Display aspect ratio : 2.40:1
Frame rate mode : Constant
Frame rate : 23.976 (24000/1001) FPS
Color space : YUV
Chroma subsampling : 4:2:0
Bit depth : 8 bits
Scan type : Progressive
Bits/(Pixel*Frame) : 0.326
Stream size : 4.75 GiB (84%)
Writing library : x264 core 148 r2744kMod b97ae06
Encoding settings : cabac=1 / ref=12 / deblock=1:1:-3 / analyse=0x3:0x133 / me=umh / subme=10 / psy=1 / fade_compensate=0.00 / psy_rd=1.00:0.00 / mixed_ref=1 / me_range=24 / chroma_me=1 / trellis=2 / 8x8dct=1 / cqm=0 / deadzone=21,11 / fast_pskip=0 / chroma_qp_offset=-2 / threads=24 / lookahead_threads=4 / sliced_threads=0 / nr=0 / decimate=0 / interlaced=0 / bluray_compat=0 / constrained_intra=0 / bframes=8 / b_pyramid=2 / b_adapt=2 / b_bias=0 / direct=3 / weightb=1 / open_gop=0 / weightp=2 / keyint=250 / keyint_min=23 / scenecut=40 / intra_refresh=0 / rc_lookahead=60 / rc=crf / mbtree=0 / crf=15.5000 / qcomp=0.60 / qpmin=0 / qpmax=69 / qpstep=4 / vbv_maxrate=62500 / vbv_bufsize=78125 / crf_max=0.0 / nal_hrd=none / filler=0 / ip_ratio=1.30 / pb_ratio=1.20 / aq=3:0.80
Language : English
Default : Yes
Forced : No
Color range : Limited
Matrix coefficients : BT.709

Audio #1
ID : 2
Format : AC-3
Format/Info : Audio Coding 3
Format settings, Endianness : Big
Codec ID : A_AC3
Duration : 2 h 6 min
Bit rate mode : Constant
Bit rate : 384 kb/s
Channel(s) : 6 channels
Channel positions : Front: L C R, Side: L R, LFE
Sampling rate : 48.0 kHz
Frame rate : 31.250 FPS (1536 spf)
Bit depth : 16 bits
Compression mode : Lossy
Stream size : 348 MiB (6%)
Title : iTunes
Language : Russian
Service kind : Complete Main
Default : Yes
Forced : No

Audio #2
ID : 3
Format : AC-3
Format/Info : Audio Coding 3
Format settings, Endianness : Big
Codec ID : A_AC3
Duration : 2 h 6 min
Bit rate mode : Constant
Bit rate : 640 kb/s
Channel(s) : 6 channels
Channel positions : Front: L C R, Side: L R, LFE
Sampling rate : 48.0 kHz
Frame rate : 31.250 FPS (1536 spf)
Bit depth : 16 bits
Compression mode : Lossy
Stream size : 580 MiB (10%)
Language : English
Service kind : Complete Main
Default : No
Forced : No

Text #1
ID : 4
Format : UTF-8
Codec ID : S_TEXT/UTF8
Codec ID/Info : UTF-8 Plain Text
Duration : 2 h 6 min
Bit rate : 4 b/s
Count of elements : 67
Stream size : 4.16 KiB (0%)
Title : Forced
Language : Russian
Default : Yes
Forced : No

Text #2
ID : 5
Format : UTF-8
Codec ID : S_TEXT/UTF8
Codec ID/Info : UTF-8 Plain Text
Duration : 2 h 6 min
Bit rate : 109 b/s
Count of elements : 1966
Stream size : 102 KiB (0%)
Title : Full
Language : Russian
Default : No
Forced : No

Text #3
ID : 6
Format : UTF-8
Codec ID : S_TEXT/UTF8
Codec ID/Info : UTF-8 Plain Text
Duration : 2 h 5 min
Bit rate : 74 b/s
Count of elements : 2314
Stream size : 68.4 KiB (0%)
Language : English
Default : No
Forced : No

Text #4
ID : 7
Format : UTF-8
Codec ID : S_TEXT/UTF8
Codec ID/Info : UTF-8 Plain Text
Duration : 2 h 5 min
Bit rate : 78 b/s
Count of elements : 2423
Stream size : 72.0 KiB (0%)
Title : SDH
Language : English
Default : No
Forced : No

Menu
00:00:00.000 : en:00:00:00.000
00:03:13.360 : en:00:03:13.360
00:08:13.535 : en:00:08:13.535
00:12:01.721 : en:00:12:01.721
00:16:32.241 : en:00:16:32.241
00:21:06.682 : en:00:21:06.682
00:23:53.682 : en:00:23:53.682
00:26:59.451 : en:00:26:59.451
00:32:18.520 : en:00:32:18.520
00:37:37.005 : en:00:37:37.005
00:41:36.577 : en:00:41:36.577
00:46:08.474 : en:00:46:08.474
00:49:30.467 : en:00:49:30.467
00:56:11.743 : en:00:56:11.743
01:00:02.599 : en:01:00:02.599
01:03:27.971 : en:01:03:27.971
01:08:43.328 : en:01:08:43.328
01:15:03.624 : en:01:15:03.624
01:19:05.991 : en:01:19:05.991
01:22:17.432 : en:01:22:17.432
01:26:50.330 : en:01:26:50.330
01:32:27.709 : en:01:32:27.709
01:35:19.088 : en:01:35:19.088
01:40:41.285 : en:01:40:41.285
01:44:42.860 : en:01:44:42.860
01:49:35.194 : en:01:49:35.194
01:54:38.830 : en:01:54:38.830
01:59:47.263 : en:01:59:47.263
Добавил русскую дорожку.

Внимание! AdBlock блокирует показ скриншотов, все вопросы к разработчикам )))
Трекер:  [ 17-Апр-2017 16:30 ]

  

Скачать .torrent

Размер .torrent файла 14 KB


Размер: 5.66 GB
Хэш (hash) релиза: b9063701b5d240f439f5e4a2751df3f628d68c03
Подписка на обновления:

Торренты, похожие на Скрытые фигуры Hidden Figures скачать торрент

Форум Название Автор Размер S L Добавлен
Зарубежные фильмы до 2016 ·%· Скрытые фигуры / Hidden Figures (Тед Мелфи / Theodore Melfi) [2016, США, Драма, биография, история, DVD9] R5 Dub + Sub Rus + Original Eng Galfimbul 78758297607.33 GB 0 0 1530975767

18:02

7-Июл-18

Трейлеры и дополнительные материалы ·· Скрытые Фигуры / Hidden Figures (Тед Мелфи / Theodore Melfi) [2016, Драма, BDRip 720p] дополнительные материалы Galfimbul 18016896261.68 GB 0 0 1495370393

15:39

21-Май-17

Зарубежные фильмы 2016-2019 (Новинки зарубежного кино) ·· Скрытые фигуры / Hidden Figures (Тед Мелфи / Theodore Melfi) [2016, США, драма, биография, история, BDRip-AVC] Dub (iTunes) + Original Eng + Sub (Rus, Eng) Galfimbul 21950369422.04 GB 0 0 1492677280

11:34

20-Апр-17

Зарубежные фильмы 2016-2019 (Новинки зарубежного кино) ·· Скрытые фигуры / Hidden Figures (Тед Мелфи / Theodore Melfi) [2016, США, Драма, биография, история, HDRip] Dub (iTunes) + Sub Galfimbul 15669849551.46 GB 0 0 1492059630

08:00

13-Апр-17

Зарубежные фильмы 2016-2019 (Новинки зарубежного кино) ·· Скрытые фигуры / Hidden Figures (Тед Мелфи / Theodore Melfi) [2016, США, драма, биография, история, BDRip 1080p] iTunes Galfimbul 93040899558.67 GB 0 0 1491988263

12:11

12-Апр-17

Зарубежные фильмы до 2016 ·· Скрытые фигуры / Hidden Figures (Тед Мелфи / Theodore Melfi) [2016, США, драма, биография, история, BDRip 720p] + Sub Rus, Eng + Original Eng Galfimbul 57101404505.32 GB 0 0 1490965212

16:00

31-Мар-17

Зарубежные фильмы 2016-2019 (Новинки зарубежного кино) ·· Скрытые фигуры / Hidden Figures (Теодор Мелфи / Theodore Melfi) [2016, США, Драма, DVDRip] Original + Sub Rus (anavuajna) + Sub Eng Galfimbul 14972112811.39 GB 0 0 1490480819

01:26

26-Мар-17

Зарубежные фильмы 2016-2019 (Новинки зарубежного кино) ·· Скрытые фигуры / Hidden Figures (Тед Мелфи) [2016, драма, DVDScr] Galfimbul 21837701122.03 GB 0 0 1484631953

08:45

17-Янв-17

Еще никто не оставлял запись к записи скачать торрент Скрытые фигуры Hidden Figures . Будь первым!

!Обратная связь