Скачать через торрент На пятьдесят оттенков темнее Fifty Shades Darker Фильм бесплатно в хорошем качестве torrent

Скачивайте на UnionPeer.org фильмы через торрент без регистрации. Новинки кино в хорошем качестве через торрент. На UnionPeer.org можно скачать через торрент фильмы 2014 и 2015 годов. Самые новые фильмы.

Скачать торрент На пятьдесят оттенков темнее Fifty Shades Darker бесплатно через .torrent фильм мультфильм сериал

Статистика раздачи
Размер:  6.83 GB   |    Зарегистрирован:  6 лет 9 месяцев   |    .torrent скачан:  114 раз   |   
Раздают:  1  
   
 
Автор Сообщение

Galfimbul

avatar Galfimbul


На пятьдесят оттенков темнее / Fifty Shades Darker

Страна: США
Студия: Universal Pictures
Жанр: драма, мелодрама
Год выпуска: 2017
Продолжительность: 02:11:28

Перевод: Профессиональный (дублированный) iTunes
Cубтитры: английские
Оригинальная аудиодорожка: английский

Режиссер: Джеймс Фоули / James Foley

В ролях: Дакота Джонсон, Джейми Дорнан, Эрик Джонсон, Элоиза Мамфорд, Белла Хиткот, Рита Ора, Люк Граймс, Виктор Расук, Макс Мартини, Брюс Олтмен

Описание: Пока Кристиан Грей борется со своими внутренними демонами, Анастейша Стил вынуждена противостоять гневу и зависти тех женщин, что были с Кристианом до нее.

Примечание: UNRATED - расширенная версия длиннее театральной на ~14 минут. Не хватает около 7 минут перевода (более развернутые эротические сцены)



Тип релиза: BDRip 720p
Контейнер: MKV

Видео: MPEG-4 AVC, 6412 Кбит/с, 1280x534, 23,976 fps
Аудио: Rus, AC3, 384 kb/s (6 ch), 48 kHz
Аудио 2: Eng, AC3, 640 kb/s (6 ch), 48 kHz
Формат субтитров: softsub (SRT)
x264 [info]: frame I:1479 Avg QP:12.39 size:124346
x264 [info]: frame P:38264 Avg QP:13.75 size: 55327
x264 [info]: frame B:149401 Avg QP:14.83 size: 26921

Format : Matroska
Format version : Version 4 / Version 2
File size : 6.83 GiB
Duration : 2 h 11 min
Overall bit rate : 7 438 kb/s
Movie name : На пятьдесят оттенков темнее. (Tonik)
Encoded date : UTC 2017-04-30 06:46:48
Writing application : mkvmerge v7.1.0 ('Good Love') 64bit built on Jul 27 2014 13:06:55
Writing library : libebml v1.3.0 + libmatroska v1.4.1

Video
ID : 1
Format : AVC
Format/Info : Advanced Video Codec
Format profile : [email protected]
Format settings, CABAC : Yes
Format settings, ReFrames : 12 frames
Codec ID : V_MPEG4/ISO/AVC
Duration : 2 h 11 min
Bit rate : 6 412 kb/s
Width : 1 280 pixels
Height : 534 pixels
Display aspect ratio : 2.40:1
Frame rate mode : Constant
Frame rate : 23.976 (24000/1001) FPS
Color space : YUV
Chroma subsampling : 4:2:0
Bit depth : 8 bits
Scan type : Progressive
Bits/(Pixel*Frame) : 0.391
Stream size : 5.89 GiB (86%)
Writing library : x264 core 148 r2705+54 9f484c1 t_mod_Custom [8-bit@all X86_64]
Encoding settings : cabac=1 / ref=12 / deblock=1:-3:-3 / analyse=0x3:0x133 / me=umh / subme=11 / psy=1 / fade_compensate=0.00 / psy_rd=1.05:0.00 / mixed_ref=1 / me_range=32 / chroma_me=1 / trellis=2 / 8x8dct=1 / cqm=0 / deadzone=21,11 / fast_pskip=0 / chroma_qp_offset=-2 / threads=12 / lookahead_threads=2 / sliced_threads=0 / nr=0 / decimate=0 / interlaced=0 / bluray_compat=0 / constrained_intra=0 / fgo=0 / bframes=8 / b_pyramid=2 / b_adapt=2 / b_bias=0 / direct=3 / weightb=1 / open_gop=0 / weightp=2 / keyint=250 / keyint_min=23 / scenecut=40 / intra_refresh=0 / rc_lookahead=60 / rc=crf / mbtree=0 / crf=15.8000 / qcomp=0.65 / qpmin=0:0:0 / qpmax=69:69:69 / qpstep=4 / vbv_maxrate=62500 / vbv_bufsize=78125 / crf_max=0.0 / nal_hrd=none / filler=0 / ip_ratio=1.30 / pb_ratio=1.20 / aq=3:0.80 / aq-sensitivity=10.00 / aq-factor=1.00:1.00:1.00 / aq2=0 / aq3=0 / zones=30,721,b=2
Language : English
Default : Yes
Forced : No
Color range : Limited
Matrix coefficients : BT.709

Audio #1
ID : 2
Format : AC-3
Format/Info : Audio Coding 3
Format settings, Endianness : Big
Codec ID : A_AC3
Duration : 2 h 11 min
Bit rate mode : Constant
Bit rate : 384 kb/s
Channel(s) : 6 channels
Channel positions : Front: L C R, Side: L R, LFE
Sampling rate : 48.0 kHz
Frame rate : 31.250 FPS (1536 spf)
Bit depth : 16 bits
Compression mode : Lossy
Stream size : 361 MiB (5%)
Title : iTunes
Language : Russian
Service kind : Complete Main
Default : Yes
Forced : No

Audio #2
ID : 3
Format : AC-3
Format/Info : Audio Coding 3
Format settings, Endianness : Big
Codec ID : A_AC3
Duration : 2 h 11 min
Bit rate mode : Constant
Bit rate : 640 kb/s
Channel(s) : 6 channels
Channel positions : Front: L C R, Side: L R, LFE
Sampling rate : 48.0 kHz
Frame rate : 31.250 FPS (1536 spf)
Bit depth : 16 bits
Compression mode : Lossy
Stream size : 602 MiB (9%)
Language : English
Service kind : Complete Main
Default : No
Forced : No

Text #1
ID : 4
Format : UTF-8
Codec ID : S_TEXT/UTF8
Codec ID/Info : UTF-8 Plain Text
Duration : 2 h 8 min
Bit rate : 41 b/s
Count of elements : 1471
Stream size : 39.4 KiB (0%)
Language : English
Default : No
Forced : No

Text #2
ID : 5
Format : UTF-8
Codec ID : S_TEXT/UTF8
Codec ID/Info : UTF-8 Plain Text
Duration : 2 h 8 min
Bit rate : 46 b/s
Count of elements : 1671
Stream size : 43.8 KiB (0%)
Title : SDH
Language : English
Default : No
Forced : No

Menu
00:00:00.000 : en:00:00:00.000
00:05:47.722 : en:00:05:47.722
00:13:14.460 : en:00:13:14.460
00:18:18.055 : en:00:18:18.055
00:24:45.359 : en:00:24:45.359
00:29:19.675 : en:00:29:19.675
00:37:25.201 : en:00:37:25.201
00:44:31.794 : en:00:44:31.794
00:50:22.394 : en:00:50:22.394
00:57:58.058 : en:00:57:58.058
01:06:01.958 : en:01:06:01.958
01:11:54.936 : en:01:11:54.936
01:24:49.876 : en:01:24:49.876
01:30:39.851 : en:01:30:39.851
01:35:40.651 : en:01:35:40.651
01:41:00.221 : en:01:41:00.221
01:48:53.735 : en:01:48:53.735
01:55:57.701 : en:01:55:57.701
02:01:38.374 : en:02:01:38.374
02:05:32.149 : en:02:05:32.149


Внимание! AdBlock блокирует показ скриншотов, все вопросы к разработчикам )))
Трекер:  [ 30-Апр-2017 17:30 ]

  

Скачать .torrent

Размер .torrent файла 17 KB


Размер: 6.83 GB
Хэш (hash) релиза: a2660db30bb5b981e72ddcb19962be221a5011de
Подписка на обновления:

Торренты, похожие на На пятьдесят оттенков темнее Fifty Shades Darker скачать торрент

Форум Название Автор Размер S L Добавлен
Зарубежные фильмы 2016-2019 (Новинки зарубежного кино) ·· На пятьдесят оттенков темнее / Fifty Shades Darker (Джеймс Фоули / James Foley) [2017, США, драма, мелодрама, BDRip-AVC] [Расширенная версия / Unrated] Dub + Original Eng + Sub (Rus, Eng) Galfimbul 24143182122.25 GB 0 0 1520425820

15:30

7-Мар-18

Зарубежные фильмы до 2016 ·· На пятьдесят оттенков темнее / Fifty Shades Darker (Джеймс Фоули / James Foley) [2017, США, Китай, драма, мелодрама, DVD9+DVD5] [Театральная и Расширенная версии / Theatrical & Extended Cut] Dub + Original Eng Galfimbul 93108899848.67 GB 0 0 1519491975

20:06

24-Фев-18

Зарубежные фильмы до 2016 ·· На пятьдесят оттенков темнее / Fifty Shades Darker (Джеймс Фоули / James Foley) [2017, США, драма, мелодрама, BDRip 1080p] [Theatrical Cut] Dub (BD CEE) + Sub Rus, Eng + Original Eng Galfimbul 1454650342213.55 GB 0 0 1498745269

17:07

29-Июн-17

Трейлеры и дополнительные материалы ·· На Пятьдесят Оттенков Темнее / Fifty Shades Darker (Джеймс Фоули / James Foley) [2017, Драма | Мелодрама, BDRip 720p] дополнительные материалы Galfimbul 12914399531.2 GB 0 0 1497195397

18:36

11-Июн-17

Зарубежные фильмы 2016-2019 (Новинки зарубежного кино) ·· На пятьдесят оттенков темнее / Fifty Shades Darker (Джеймс Фоули / James Foley) [2016, США, драма, мелодрама, BDRip] [Расширенная версия / Unrated Edition] Dub (СЕЕ) + Sub Rus + Original Eng Galfimbul 27826005682.59 GB 0 0 1496937939

19:05

8-Июн-17

Зарубежные фильмы 2016-2019 (Новинки зарубежного кино) ·· На пятьдесят оттенков темнее / Fifty Shades Darker (Джеймс Фоули / James Foley) [2017, США, Драма, мелодрама, BDRip] [Расширенная версия / Unrated Edition] Dub Galfimbul 15652229121.46 GB 0 0 1496596251

20:10

4-Июн-17

Зарубежные фильмы 2016-2019 (Новинки зарубежного кино) ·· На пятьдесят оттенков темнее / Fifty Shades Darker (Джеймс Фоули / James Foley) [2017, США, драма, мелодрама, BDRip] [Theatrical Cut] Dub + Original Eng + Sub Rus, Eng Galfimbul 23445029912.18 GB 0 0 1496596151

20:09

4-Июн-17

Зарубежные фильмы до 2016 ·· На пятьдесят оттенков темнее / Fifty Shades Darker (Джеймс Фоули / James Foley) [2017, США, драма, мелодрама, Blu-ray disc 1080p] [2-in-1: Theatrical & Unrated Edition] [CEE] Dub + Sub Rus, Eng + Original Eng Galfimbul 4641018154343.22 GB 2 0 1495998825

22:13

28-Май-17

Зарубежные фильмы 2016-2019 (Новинки зарубежного кино) ·· На пятьдесят оттенков темнее / Fifty Shades Darker (Джеймс Фоули) [2017, драма, мелодрама, BDRemux 1080p] Театральная версия | Лицензия Galfimbul 2670690758824.87 GB 0 0 1495852838

05:40

27-Май-17

Зарубежные фильмы 2016-2019 (Новинки зарубежного кино) ·· На пятьдесят оттенков темнее / Fifty Shades Darker (2016) Blu-Ray CEE 1080p | Театральная и расширенная версия | Лицензия Galfimbul 4641018154343.22 GB 0 0 1495845711

03:41

27-Май-17

Зарубежные фильмы 2016-2019 (Новинки зарубежного кино) ·· На пятьдесят оттенков темнее / Fifty Shades Darker (Джеймс Фоули) [2017, Драма, мелодрама, BDRip 1080p] Театральная версия | Лицензия Galfimbul 1185747443911.04 GB 0 0 1495843882

03:11

27-Май-17

Зарубежные фильмы 2016-2019 (Новинки зарубежного кино) ·· На пятьдесят оттенков темнее / Fifty Shades Darker (Джеймс Фоули) [2017, драма, мелодрама, BDRip 720p] Театральная версия | Лицензия Galfimbul 67344489276.27 GB 0 0 1495843878

03:11

27-Май-17

Зарубежные фильмы 2016-2019 (Новинки зарубежного кино) ·· На пятьдесят оттенков темнее / Fifty Shades Darker (Джеймс Фоули) [2017, драма, мелодрама, BDRip] Расширенная версия | Лицензия Galfimbul 838320672799 MB 0 0 1495843874

03:11

27-Май-17

Зарубежные фильмы 2016-2019 (Новинки зарубежного кино) ·· На пятьдесят оттенков темнее / Fifty Shades Darker (Джеймс Фоули) [2017, драма, мелодрама, BDRip] Расширенная версия | Лицензия Galfimbul 23435740482.18 GB 0 0 1495843869

03:11

27-Май-17

Зарубежные фильмы 2016-2019 (Новинки зарубежного кино) ·· На пятьдесят оттенков темнее / Fifty Shades Darker (Джеймс Фоули) [2017, драма, мелодрама, BDRip] Расширенная версия | Лицензия Galfimbul 15681357121.46 GB 0 0 1495843866

03:11

27-Май-17

Зарубежные фильмы до 2016 ·· На пятьдесят оттенков темнее / Fifty Shades Darker (Джеймс Фоули / James Foley) [2017, США, драма, мелодрама, BDRip 1080p] [Расширенная версия / Extended Cut] Dub (iTunes) + Sub Eng + Original Eng Galfimbul 1271510023611.84 GB 0 0 1493574678

20:51

30-Апр-17

Зарубежные фильмы до 2016 ·· На пятьдесят оттенков темнее / Fifty Shades Darker (Джеймс Фоули / James Foley) [2017, США, драма, мелодрама, WEB-DL 1080p] Dub (iTunes) Galfimbul 43642482174.06 GB 0 0 1491544176

08:49

7-Апр-17

Зарубежные фильмы 2016-2019 (Новинки зарубежного кино) ·· На пятьдесят оттенков темнее / Fifty Shades Darker (Джеймс Фоули) [2017, драма, мелодрама, WEB-DLRip] iTunes Galfimbul 15696442881.46 GB 0 0 1491460857

09:40

6-Апр-17

Зарубежные фильмы 2016-2019 (Новинки зарубежного кино) ·· На пятьдесят оттенков темнее / Fifty Shades Darker (Джеймс Фоули) [2017, драма, мелодрама, WEB-DL 1080p] iTunes Galfimbul 43642419384.06 GB 0 0 1491426661

00:11

6-Апр-17

Еще никто не оставлял запись к записи скачать торрент На пятьдесят оттенков темнее Fifty Shades Darker . Будь первым!

!Обратная связь