Скачать через торрент На пятьдесят оттенков темнее Fifty Shades Darker Фильм бесплатно в хорошем качестве torrent

Скачивайте на UnionPeer.org фильмы через торрент без регистрации. Новинки кино в хорошем качестве через торрент. На UnionPeer.org можно скачать через торрент фильмы 2014 и 2015 годов. Самые новые фильмы.

Скачать торрент На пятьдесят оттенков темнее Fifty Shades Darker бесплатно через .torrent фильм мультфильм сериал

Статистика раздачи
Размер:  11.84 GB   |    Зарегистрирован:  6 лет 9 месяцев   |    .torrent скачан:  108 раз   |   
Раздают:  1  
   
 
Автор Сообщение

Galfimbul

avatar Galfimbul


На пятьдесят оттенков темнее / Fifty Shades Darker

Страна: США
Студия: Universal Pictures
Жанр: драма, мелодрама
Год выпуска: 2017
Продолжительность: 02:11:28

Перевод: Профессиональный (дублированный) iTunes
Cубтитры: английские
Оригинальная аудиодорожка: английский

Режиссер: Джеймс Фоули / James Foley

В ролях: Дакота Джонсон, Джейми Дорнан, Эрик Джонсон, Элоиза Мамфорд, Белла Хиткот, Рита Ора, Люк Граймс, Виктор Расук, Макс Мартини, Брюс Олтмен

Описание: Пока Кристиан Грей борется со своими внутренними демонами, Анастейша Стил вынуждена противостоять гневу и зависти тех женщин, что были с Кристианом до нее.

<div class="post-box">Скачать сэмпл</div>

Тип релиза: BDRip 1080p
Контейнер: MKV

Видео: MPEG-4 AVC, 11,0 Мбит/с, 1920x800, 23,976 fps
Аудио 1: Rus, AC3, 384 kb/s (6 ch), 48 kHz
Аудио 2: Eng, DTS, 1509 kb/s (6 ch), 48 kHz
UNRATED - расширенная версия длиннее театральной на ~14 минут. Не хватает около 7 минут перевода (более развернутые эротические сцены)
Общее
Уникальный идентификатор : 203132119006830797516951840189801956835 (0x98D1D2B47790D092936BF758B7C605E3)
Полное имя : Fifty.Shades.Darker.2017.UNRATED.BDRip.1080p.Secrets.mkv
Формат : Matroska
Версия формата : Version 4 / Version 2
Размер файла : 11,8 Гбайт
Продолжительность : 2 ч. 11 м.
Общий поток : 12,9 Мбит/сек
Название фильма : Fifty Shades Darker (2017) - Release for Rutracker.org by Secrets
Дата кодирования : UTC 2017-04-30 11:41:23
Программа кодирования : mkvmerge v11.0.0 ('Alive') 64bit
Библиотека кодирования : libebml v1.3.4 + libmatroska v1.4.5

Видео
Идентификатор : 1
Формат : AVC
Формат/Информация : Advanced Video Codec
Профиль формата : [email protected]
Параметр CABAC формата : Да
Параметр ReFrames формата : 5 кадров
Идентификатор кодека : V_MPEG4/ISO/AVC
Продолжительность : 2 ч. 11 м.
Битрейт : 11,0 Мбит/сек
Ширина : 1920 пикселей
Высота : 800 пикселей
Соотношение сторон : 2,40:1
Режим частоты кадров : Постоянный
Частота кадров : 23,976 (24000/1001) кадра/сек
Цветовое пространство : YUV
Субдискретизация насыщенности : 4:2:0
Битовая глубина : 8 бит
Тип развёртки : Прогрессивная
Бит/(Пиксели*Кадры) : 0.299
Размер потока : 10,1 Гбайт (85%)
Заголовок : Fifty Shades Darker (2017) - Release for Rutracker.org by Secrets
Библиотека кодирования : x264 core 148 r2665kMod a01e339
Настройки программы : cabac=1 / ref=5 / deblock=1:-3:-3 / analyse=0x3:0x133 / me=umh / subme=11 / psy=1 / fade_compensate=0.00 / psy_rd=0.85:0.00 / mixed_ref=1 / me_range=48 / chroma_me=1 / trellis=2 / 8x8dct=1 / cqm=0 / deadzone=21,11 / fast_pskip=0 / chroma_qp_offset=-2 / threads=24 / lookahead_threads=4 / sliced_threads=0 / nr=0 / decimate=0 / interlaced=0 / bluray_compat=0 / constrained_intra=0 / fgo=0 / bframes=8 / b_pyramid=2 / b_adapt=2 / b_bias=0 / direct=3 / weightb=1 / open_gop=0 / weightp=2 / keyint=240 / keyint_min=24 / scenecut=40 / intra_refresh=0 / rc=2pass / mbtree=0 / bitrate=11000 / ratetol=1.0 / qcomp=0.70 / qpmin=0 / qpmax=69 / qpstep=4 / cplxblur=20.0 / qblur=0.5 / ip_ratio=1.20 / pb_ratio=1.20 / aq=3:0.80
Язык : English
Default : Да
Forced : Нет

Аудио #1
Идентификатор : 2
Формат : AC-3
Формат/Информация : Audio Coding 3
Расширение режима : CM (complete main)
Параметр Endianness формата : Big
Идентификатор кодека : A_AC3
Продолжительность : 2 ч. 11 м.
Вид битрейта : Постоянный
Битрейт : 384 Кбит/сек
Каналы : 6 каналов
Расположение каналов : Front: L C R, Side: L R, LFE
Частота : 48,0 КГц
Частота кадров : 31,250 кадров/сек (1536 spf)
Метод сжатия : С потерями
Размер потока : 361 Мбайт (3%)
Заголовок : iTunes
Язык : Russian
Default : Да
Forced : Нет

Аудио #2
Идентификатор : 3
Формат : DTS
Формат/Информация : Digital Theater Systems
Режим : 16
Параметр Endianness формата : Big
Идентификатор кодека : A_DTS
Продолжительность : 2 ч. 11 м.
Вид битрейта : Постоянный
Битрейт : 1509 Кбит/сек
Каналы : 6 каналов
Расположение каналов : Front: L C R, Side: L R, LFE
Частота : 48,0 КГц
Частота кадров : 93,750 кадра/сек (512 spf)
Битовая глубина : 24 бит
Метод сжатия : С потерями
Размер потока : 1,39 Гбайт (12%)
Язык : English
Default : Нет
Forced : Нет

Текст #1
Идентификатор : 4
Формат : UTF-8
Идентификатор кодека : S_TEXT/UTF8
Идентификатор кодека/Информация : UTF-8 Plain Text
Продолжительность : 2 ч. 8 м.
Битрейт : 42 бит/сек
Count of elements : 1471
Размер потока : 39,9 Кбайт (0%)
Язык : English
Default : Нет
Forced : Нет

Текст #2
Идентификатор : 5
Формат : UTF-8
Идентификатор кодека : S_TEXT/UTF8
Идентификатор кодека/Информация : UTF-8 Plain Text
Продолжительность : 2 ч. 8 м.
Битрейт : 46 бит/сек
Count of elements : 1671
Размер потока : 43,8 Кбайт (0%)
Заголовок : SDH
Язык : English
Default : Нет
Forced : Нет

Текст #3
Идентификатор : 6
Формат : UTF-8
Идентификатор кодека : S_TEXT/UTF8
Идентификатор кодека/Информация : UTF-8 Plain Text
Продолжительность : 2 ч. 8 м.
Битрейт : 57 бит/сек
Count of elements : 1671
Размер потока : 54,5 Кбайт (0%)
Заголовок : SDH-Colored
Язык : English
Default : Нет
Forced : Нет

Меню
00:00:00.000 : en:00:00:00.000
00:05:47.722 : en:00:05:47.722
00:13:14.460 : en:00:13:14.460
00:18:18.055 : en:00:18:18.055
00:24:45.359 : en:00:24:45.359
00:29:19.675 : en:00:29:19.675
00:37:25.201 : en:00:37:25.201
00:44:31.794 : en:00:44:31.794
00:50:22.394 : en:00:50:22.394
00:57:58.058 : en:00:57:58.058
01:06:01.958 : en:01:06:01.958
01:11:54.936 : en:01:11:54.936
01:24:49.876 : en:01:24:49.876
01:30:39.851 : en:01:30:39.851
01:35:40.651 : en:01:35:40.651
01:41:00.221 : en:01:41:00.221
01:48:53.735 : en:01:48:53.735
01:55:57.701 : en:01:55:57.701
02:01:38.374 : en:02:01:38.374
02:05:32.149 : en:02:05:32.149


Внимание! AdBlock блокирует показ скриншотов, все вопросы к разработчикам )))
Трекер:  [ 30-Апр-2017 20:00 ]

  

Скачать .torrent

Размер .torrent файла 30 KB


Размер: 11.84 GB
Хэш (hash) релиза: abc2099fb75119be4b0847b4ab3a5cf3903225f4
Подписка на обновления:

Торренты, похожие на На пятьдесят оттенков темнее Fifty Shades Darker скачать торрент

Форум Название Автор Размер S L Добавлен
Зарубежные фильмы 2016-2019 (Новинки зарубежного кино) ·· На пятьдесят оттенков темнее / Fifty Shades Darker (Джеймс Фоули / James Foley) [2017, США, драма, мелодрама, BDRip-AVC] [Расширенная версия / Unrated] Dub + Original Eng + Sub (Rus, Eng) Galfimbul 24143182122.25 GB 0 0 1520425820

15:30

7-Мар-18

Зарубежные фильмы до 2016 ·· На пятьдесят оттенков темнее / Fifty Shades Darker (Джеймс Фоули / James Foley) [2017, США, Китай, драма, мелодрама, DVD9+DVD5] [Театральная и Расширенная версии / Theatrical & Extended Cut] Dub + Original Eng Galfimbul 93108899848.67 GB 0 0 1519491975

20:06

24-Фев-18

Зарубежные фильмы до 2016 ·· На пятьдесят оттенков темнее / Fifty Shades Darker (Джеймс Фоули / James Foley) [2017, США, драма, мелодрама, BDRip 1080p] [Theatrical Cut] Dub (BD CEE) + Sub Rus, Eng + Original Eng Galfimbul 1454650342213.55 GB 0 0 1498745269

17:07

29-Июн-17

Трейлеры и дополнительные материалы ·· На Пятьдесят Оттенков Темнее / Fifty Shades Darker (Джеймс Фоули / James Foley) [2017, Драма | Мелодрама, BDRip 720p] дополнительные материалы Galfimbul 12914399531.2 GB 0 0 1497195397

18:36

11-Июн-17

Зарубежные фильмы 2016-2019 (Новинки зарубежного кино) ·· На пятьдесят оттенков темнее / Fifty Shades Darker (Джеймс Фоули / James Foley) [2016, США, драма, мелодрама, BDRip] [Расширенная версия / Unrated Edition] Dub (СЕЕ) + Sub Rus + Original Eng Galfimbul 27826005682.59 GB 0 0 1496937939

19:05

8-Июн-17

Зарубежные фильмы 2016-2019 (Новинки зарубежного кино) ·· На пятьдесят оттенков темнее / Fifty Shades Darker (Джеймс Фоули / James Foley) [2017, США, Драма, мелодрама, BDRip] [Расширенная версия / Unrated Edition] Dub Galfimbul 15652229121.46 GB 0 0 1496596251

20:10

4-Июн-17

Зарубежные фильмы 2016-2019 (Новинки зарубежного кино) ·· На пятьдесят оттенков темнее / Fifty Shades Darker (Джеймс Фоули / James Foley) [2017, США, драма, мелодрама, BDRip] [Theatrical Cut] Dub + Original Eng + Sub Rus, Eng Galfimbul 23445029912.18 GB 0 0 1496596151

20:09

4-Июн-17

Зарубежные фильмы до 2016 ·· На пятьдесят оттенков темнее / Fifty Shades Darker (Джеймс Фоули / James Foley) [2017, США, драма, мелодрама, Blu-ray disc 1080p] [2-in-1: Theatrical & Unrated Edition] [CEE] Dub + Sub Rus, Eng + Original Eng Galfimbul 4641018154343.22 GB 2 0 1495998825

22:13

28-Май-17

Зарубежные фильмы 2016-2019 (Новинки зарубежного кино) ·· На пятьдесят оттенков темнее / Fifty Shades Darker (Джеймс Фоули) [2017, драма, мелодрама, BDRemux 1080p] Театральная версия | Лицензия Galfimbul 2670690758824.87 GB 0 0 1495852838

05:40

27-Май-17

Зарубежные фильмы 2016-2019 (Новинки зарубежного кино) ·· На пятьдесят оттенков темнее / Fifty Shades Darker (2016) Blu-Ray CEE 1080p | Театральная и расширенная версия | Лицензия Galfimbul 4641018154343.22 GB 0 0 1495845711

03:41

27-Май-17

Зарубежные фильмы 2016-2019 (Новинки зарубежного кино) ·· На пятьдесят оттенков темнее / Fifty Shades Darker (Джеймс Фоули) [2017, Драма, мелодрама, BDRip 1080p] Театральная версия | Лицензия Galfimbul 1185747443911.04 GB 0 0 1495843882

03:11

27-Май-17

Зарубежные фильмы 2016-2019 (Новинки зарубежного кино) ·· На пятьдесят оттенков темнее / Fifty Shades Darker (Джеймс Фоули) [2017, драма, мелодрама, BDRip 720p] Театральная версия | Лицензия Galfimbul 67344489276.27 GB 0 0 1495843878

03:11

27-Май-17

Зарубежные фильмы 2016-2019 (Новинки зарубежного кино) ·· На пятьдесят оттенков темнее / Fifty Shades Darker (Джеймс Фоули) [2017, драма, мелодрама, BDRip] Расширенная версия | Лицензия Galfimbul 838320672799 MB 0 0 1495843874

03:11

27-Май-17

Зарубежные фильмы 2016-2019 (Новинки зарубежного кино) ·· На пятьдесят оттенков темнее / Fifty Shades Darker (Джеймс Фоули) [2017, драма, мелодрама, BDRip] Расширенная версия | Лицензия Galfimbul 23435740482.18 GB 0 0 1495843869

03:11

27-Май-17

Зарубежные фильмы 2016-2019 (Новинки зарубежного кино) ·· На пятьдесят оттенков темнее / Fifty Shades Darker (Джеймс Фоули) [2017, драма, мелодрама, BDRip] Расширенная версия | Лицензия Galfimbul 15681357121.46 GB 0 0 1495843866

03:11

27-Май-17

Зарубежные фильмы до 2016 ·· На пятьдесят оттенков темнее / Fifty Shades Darker (Джеймс Фоули / James Foley) [2017, США, драма, мелодрама, BDRip 720p] [Расширенная версия / Extended Cut] Dub (iTunes) + Sub Eng + Original Eng Galfimbul 73350236596.83 GB 0 0 1493566904

18:41

30-Апр-17

Зарубежные фильмы до 2016 ·· На пятьдесят оттенков темнее / Fifty Shades Darker (Джеймс Фоули / James Foley) [2017, США, драма, мелодрама, WEB-DL 1080p] Dub (iTunes) Galfimbul 43642482174.06 GB 0 0 1491544176

08:49

7-Апр-17

Зарубежные фильмы 2016-2019 (Новинки зарубежного кино) ·· На пятьдесят оттенков темнее / Fifty Shades Darker (Джеймс Фоули) [2017, драма, мелодрама, WEB-DLRip] iTunes Galfimbul 15696442881.46 GB 0 0 1491460857

09:40

6-Апр-17

Зарубежные фильмы 2016-2019 (Новинки зарубежного кино) ·· На пятьдесят оттенков темнее / Fifty Shades Darker (Джеймс Фоули) [2017, драма, мелодрама, WEB-DL 1080p] iTunes Galfimbul 43642419384.06 GB 0 0 1491426661

00:11

6-Апр-17

Еще никто не оставлял запись к записи скачать торрент На пятьдесят оттенков темнее Fifty Shades Darker . Будь первым!

!Обратная связь