Скачать через торрент Призрак в доспехах Ghost in the Shell Фильм бесплатно в хорошем качестве torrent

Скачивайте на UnionPeer.org фильмы через торрент без регистрации. Новинки кино в хорошем качестве через торрент. На UnionPeer.org можно скачать через торрент фильмы 2014 и 2015 годов. Самые новые фильмы.

Скачать торрент Призрак в доспехах Ghost in the Shell бесплатно через .torrent фильм мультфильм сериал

Статистика раздачи
Размер:  5.07 GB   |    Зарегистрирован:  6 лет 7 месяцев   |    .torrent скачан:  411 раз   |   
Раздают:  1  
 

Скачать Призрак в доспехах / Ghost in the Shell (Руперт Сандерс / Rupert Sanders) [2017, США, фантастика, боевик, триллер, драма, криминал, BDRip 720p] Лицензия через torrent

 
 
Автор Сообщение

Galfimbul

avatar Galfimbul


Призрак в доспехах /Ghost in the Shell

Страна: США
Студия: Arad Productions, DreamWorks, Grosvenor Park Productions
Жанр: фантастика, боевик, триллер, драма, криминал
Год выпуска: 2017
Продолжительность: 01:46:57

Перевод: Профессиональный (дублированный)
Субтитры: русские (форс., полные) английские (форс. (хардсаб), полные, SDH)
Оригинальная аудиодорожка: английский

Режиссер: Руперт Сандерс / Rupert Sanders

В ролях: Скарлетт Йоханссон, Йохан Филип Асбек, Такеши Китано, Жюльетт Бинош, Майкл Питт, Чин Хань, Дануся Самал, Ласарус Ратуэре, Ютака Идзумихара, Таванда Маниймо

Описание: Кибер-технологии подчинили себе все сферы жизни, а самые опасные преступники переместились в виртуальное пространство. Киборг-гибрид, стоящий во главе элитного подразделения полиции, идет по следу могущественного хакера.

</a>

Тип релиза: BDRip 720p
Контейнер: MKV

Видео: MPEG-4 AVC, 5500 Кбит/с, 1280x720, 23,976 fps
Аудио: Rus, AC3, 640 kb/s (6 ch), 48 kHz
Аудио 2: Eng, AC3, 640 kb/s (6 ch), 48 kHz
Формат субтитров: softsub (SRT)
x264 [info]: frame I:1211 Avg QP:11.17 size:136829
x264 [info]: frame P:36194 Avg QP:13.07 size: 52454
x264 [info]: frame B:116442 Avg QP:14.10 size: 20161

Format : Matroska
Format version : Version 4 / Version 2
File size : 5.07 GiB
Duration : 1 h 46 min
Overall bit rate : 6 783 kb/s
Movie name : Призрак в доспеха. (Tonik)
Encoded date : UTC 2017-07-21 09:23:22
Writing application : mkvmerge v7.1.0 ('Good Love') 64bit built on Jul 27 2014 13:06:55
Writing library : libebml v1.3.0 + libmatroska v1.4.1

Video
ID : 1
Format : AVC
Format/Info : Advanced Video Codec
Format profile : [email protected]
Format settings, CABAC : Yes
Format settings, ReFrames : 9 frames
Codec ID : V_MPEG4/ISO/AVC
Duration : 1 h 46 min
Bit rate : 5 500 kb/s
Width : 1 280 pixels
Height : 720 pixels
Display aspect ratio : 16:9
Frame rate mode : Constant
Frame rate : 23.976 (24000/1001) FPS
Color space : YUV
Chroma subsampling : 4:2:0
Bit depth : 8 bits
Scan type : Progressive
Bits/(Pixel*Frame) : 0.249
Stream size : 4.11 GiB (81%)
Writing library : x264 core 148 r2665kMod a01e339
Encoding settings : cabac=1 / ref=9 / deblock=1:-3:-3 / analyse=0x3:0x133 / me=umh / subme=11 / psy=1 / fade_compensate=0.00 / psy_rd=1.05:0.00 / mixed_ref=1 / me_range=32 / chroma_me=1 / trellis=2 / 8x8dct=1 / cqm=0 / deadzone=21,11 / fast_pskip=0 / chroma_qp_offset=-2 / threads=22 / lookahead_threads=3 / sliced_threads=0 / nr=0 / decimate=0 / interlaced=0 / bluray_compat=0 / constrained_intra=0 / fgo=0 / bframes=8 / b_pyramid=2 / b_adapt=2 / b_bias=0 / direct=3 / weightb=1 / open_gop=0 / weightp=2 / keyint=240 / keyint_min=24 / scenecut=40 / intra_refresh=0 / rc=2pass / mbtree=0 / bitrate=5500 / ratetol=1.0 / qcomp=0.70 / qpmin=0 / qpmax=69 / qpstep=4 / cplxblur=20.0 / qblur=0.5 / ip_ratio=1.20 / pb_ratio=1.20 / aq=3:0.85
Language : English
Default : Yes
Forced : No

Audio #1
ID : 2
Format : AC-3
Format/Info : Audio Coding 3
Format settings, Endianness : Big
Codec ID : A_AC3
Duration : 1 h 46 min
Bit rate mode : Constant
Bit rate : 640 kb/s
Channel(s) : 6 channels
Channel positions : Front: L C R, Side: L R, LFE
Sampling rate : 48.0 kHz
Frame rate : 31.250 FPS (1536 spf)
Bit depth : 16 bits
Compression mode : Lossy
Stream size : 490 MiB (9%)
Language : Russian
Service kind : Complete Main
Default : Yes
Forced : No

Audio #2
ID : 3
Format : AC-3
Format/Info : Audio Coding 3
Format settings, Endianness : Big
Codec ID : A_AC3
Duration : 1 h 46 min
Bit rate mode : Constant
Bit rate : 640 kb/s
Channel(s) : 6 channels
Channel positions : Front: L C R, Side: L R, LFE
Sampling rate : 48.0 kHz
Frame rate : 31.250 FPS (1536 spf)
Bit depth : 16 bits
Compression mode : Lossy
Stream size : 490 MiB (9%)
Language : English
Service kind : Complete Main
Default : No
Forced : No

Text #1
ID : 4
Format : UTF-8
Codec ID : S_TEXT/UTF8
Codec ID/Info : UTF-8 Plain Text
Duration : 1 h 44 min
Bit rate : 4 b/s
Count of elements : 75
Stream size : 3.56 KiB (0%)
Title : Forced
Language : Russian
Default : Yes
Forced : No

Text #2
ID : 5
Format : UTF-8
Codec ID : S_TEXT/UTF8
Codec ID/Info : UTF-8 Plain Text
Duration : 1 h 44 min
Bit rate : 56 b/s
Count of elements : 916
Stream size : 43.0 KiB (0%)
Title : Full
Language : Russian
Default : No
Forced : No

Text #3
ID : 6
Format : UTF-8
Codec ID : S_TEXT/UTF8
Codec ID/Info : UTF-8 Plain Text
Duration : 1 h 34 min
Bit rate : 35 b/s
Count of elements : 881
Stream size : 24.6 KiB (0%)
Title : Full
Language : English
Default : No
Forced : No

Text #4
ID : 7
Format : UTF-8
Codec ID : S_TEXT/UTF8
Codec ID/Info : UTF-8 Plain Text
Duration : 1 h 37 min
Bit rate : 39 b/s
Count of elements : 883
Stream size : 28.2 KiB (0%)
Title : SDH (Colored)
Language : English
Default : No
Forced : No

Menu
00:00:00.000 : en:1
00:08:08.000 : en:2
00:14:38.000 : en:3
00:21:24.000 : en:4
00:28:00.000 : en:5
00:34:10.000 : en:6
00:39:24.000 : en:7
00:43:54.000 : en:8
00:51:45.000 : en:9
00:55:13.000 : en:10
01:01:02.000 : en:11
01:07:43.000 : en:12
01:14:31.000 : en:13
01:20:26.000 : en:14
01:27:40.000 : en:15
01:33:34.000 : en:16
01:37:53.000 : en:17
Источник http://arutor.org

Внимание! AdBlock блокирует показ скриншотов, все вопросы к разработчикам )))
Трекер:  [ 21-Июл-2017 12:30 ]

  

Скачать .torrent

Размер .torrent файла 13 KB


Размер: 5.07 GB
Хэш (hash) релиза: e7e25fa11b0028eb99d2f5333b84bfb9fc0bee66
Подписка на обновления:

Торренты, похожие на Призрак в доспехах Ghost in the Shell скачать торрент

Форум Название Автор Размер S L Добавлен
Зарубежные фильмы 2016-2019 (Новинки зарубежного кино) ·%· Призрак в доспехах / Ghost in the Shell (2017) BDRip-HEVC 1080p от HEVC-CLUB | Лицензия Galfimbul 55491360005.17 GB 0 0 1588610491

19:41

4-Май-20

Зарубежные фильмы 2016-2019 (Новинки зарубежного кино) ·· Призрак в доспехах / Ghost in the Shell (2017) BDRip 1080p | D, A | Лицензия Galfimbul 1850596804117.24 GB 0 0 1529226036

12:00

17-Июн-18

Зарубежные фильмы до 2016 ·· Призрак в доспехах / Ghost in the Shell (Руперт Сандерс / Rupert Sanders) [2017, Великобритания, Китай, Индия, Гонконг, США, Фантастика, боевик, триллер, драма, криминал, детектив, DVD9] R5 Dub + Sub Rus + Original Eng Galfimbul 77703843847.24 GB 0 0 1525024915

21:01

29-Апр-18

Зарубежные фильмы 2016-2019 (Новинки зарубежного кино) ·· Призрак в доспехах / Ghost in the Shell (Руперт Сандерс / Rupert Sanders) [2017, США, Индия, Китай, Япония, Гонконг, Великобритания, Новая Зеландия, Канада, Австралия, фантастика, боевик, триллер, драма, детектив, HDRip] AVO (Немахов) Galfimbul 15696588801.46 GB 0 0 1509294616

19:30

29-Окт-17

Трейлеры и дополнительные материалы ·· Призрак в Доспехах / Ghost in the Shell (Руперт Сандерс) [2017, Фантастика | Боевик | Триллер, BDRip 720p] дополнительные материалы Galfimbul 16537201251.54 GB 0 0 1502543282

16:08

12-Авг-17

Зарубежные фильмы до 2016 ·· Призрак в доспехах / Ghost in the Shell (Руперт Сандерс / Rupert Sanders)[2017, США, фантастика, боевик, триллер, Blu-Ray>DVD9 (Custom)] DUB+Eng+Sub rus,eng Galfimbul 78562672647.32 GB 0 0 1501355191

22:06

29-Июл-17

Зарубежные фильмы до 2016 ·· Призрак в доспехах / Ghost in the Shell (Руперт Сандерс / Rupert Sanders)[2017, США, фантастика, боевик, триллер, Blu-Ray>DVD5 (Custom)] DUB+Eng+Sub rus,eng Galfimbul 46960599044.37 GB 0 0 1501355180

22:06

29-Июл-17

Зарубежные фильмы 2016-2019 (Новинки зарубежного кино) ·· Призрак в доспехах / Ghost in the Shell (Руперт Сандерс / Rupert Sanders) [2017, США, Индия, Китай, Фантастика, боевик, триллер, BDRip-AVC] Dub + Sub Rus, Eng + Original Eng Galfimbul 26058997602.43 GB 0 0 1501174879

20:01

27-Июл-17

Зарубежные фильмы 2016-2019 (Новинки зарубежного кино) ·· Призрак в доспехах / Ghost in the Shell (Руперт Сандерс / Rupert Sanders) [2017, США, фантастика, боевик, триллер, драма, криминал, Blu-Ray CEE] Лицензия Galfimbul 4096378879938.15 GB 0 0 1500634244

13:50

21-Июл-17

Зарубежные фильмы 2016-2019 (Новинки зарубежного кино) ·· Призрак в доспехах / Ghost in the Shell (Руперт Сандерс / Rupert Sanders) [2017, США, фантастика, боевик, триллер, драма, криминал, BDRip 1080p] Лицензия Galfimbul 1626730383615.15 GB 0 0 1500630621

12:50

21-Июл-17

Зарубежные фильмы 2016-2019 (Новинки зарубежного кино) ·· Призрак в доспехах / Ghost in the Shell (Руперт Сандерс / Rupert Sanders) [2017, США, фантастика, боевик, триллер, драма, криминал, BDRip-AVC] Dub (iTunes) + Sub (Rus) Galfimbul 15179688221.41 GB 0 0 1500294622

15:30

17-Июл-17

Зарубежные фильмы 2016-2019 (Новинки зарубежного кино) ·· Призрак в доспехах / Ghost in the Shell (Руперт Сандерс / Rupert Sanders) [2017, США, фантастика, боевик, триллер, драма, криминал, детектив, HDRip] iTunes Galfimbul 22049812482.05 GB 0 0 1499893333

00:02

13-Июл-17

Зарубежные фильмы 2016-2019 (Новинки зарубежного кино) ·· Призрак в доспехах / Ghost in the Shell (Руперт Сандерс / Rupert Sanders) [2017, США, фантастика, боевик, триллер, драма, криминал, детектив, HDRip] iTunes Galfimbul 14678630401.37 GB 0 0 1499856010

13:40

12-Июл-17

Зарубежные фильмы 2016-2019 (Новинки зарубежного кино) ·· Призрак в доспехах / Ghost in the Shell (Руперт Сандерс / Rupert Sanders) [2017, США, фантастика, боевик, триллер, драма, криминал, детектив, BDRip 1080p] iTunes Galfimbul 106303004319.9 GB 0 0 1499850606

12:10

12-Июл-17

Зарубежные фильмы 2016-2019 (Новинки зарубежного кино) ·· Призрак в доспехах / Ghost in the Shell (Руперт Сандерс / Rupert Sanders) [2017, США, фантастика, боевик, триллер, драма, криминал, детектив, WEB-DLRip] Dub + Sub Rus, Eng + Original Eng Galfimbul 23416076092.18 GB 0 0 1499769011

13:30

11-Июл-17

Зарубежные фильмы 2016-2019 (Новинки зарубежного кино) ·· Призрак в доспехах / Ghost in the Shell (Руперт Сандерс / Rupert Sanders) [2017, США, фантастика, боевик, триллер, драма, криминал, детектив, WEB-DLRip] Dub Galfimbul 15740538881.47 GB 0 0 1499688115

15:01

10-Июл-17

Зарубежные фильмы 2016-2019 (Новинки зарубежного кино) ·· Призрак в доспехах / Ghost in the Shell (Руперт Сандерс / Rupert Sanders) [2017, США, Япония, Гонконг, фантастика, боевик, триллер, WEB-DLRip-AVC] Dub + Original + Sub (rus, eng) Galfimbul 22075620932.06 GB 0 0 1499688110

15:01

10-Июл-17

Зарубежные фильмы 2016-2019 (Новинки зарубежного кино) ·· Призрак в доспехах / Ghost in the Shell (Руперт Сандерс / Rupert Sanders) [2017, США, Индия, Китай, Япония, фантастика, боевик, триллер, драма, детектив, WEB-DLRip] Dub Galfimbul 780877824745 MB 0 0 1499688104

15:01

10-Июл-17

Зарубежные фильмы 2016-2019 (Новинки зарубежного кино) ·· Призрак в доспехах / Ghost in the Shell (Руперт Сандерс) [2017 г., Фантастика, боевик, триллер, драма, криминал, WEB-DLRip] Galfimbul 780021760744 MB 0 0 1499564411

04:40

9-Июл-17

Еще никто не оставлял запись к записи скачать торрент Призрак в доспехах Ghost in the Shell . Будь первым!

!Обратная связь