Скачать через торрент Призрак в доспехах Ghost in the Shell Фильм бесплатно в хорошем качестве torrent

Скачивайте на UnionPeer.org фильмы через торрент без регистрации. Новинки кино в хорошем качестве через торрент. На UnionPeer.org можно скачать через торрент фильмы 2014 и 2015 годов. Самые новые фильмы.

Скачать торрент Призрак в доспехах Ghost in the Shell бесплатно через .torrent фильм мультфильм сериал

Статистика раздачи
Размер:  5.17 GB   |    Зарегистрирован:  3 года 9 месяцев   |    .torrent скачан:  54 раза   |   

Пиры будут получены при скачивании

 

Скачать Призрак в доспехах / Ghost in the Shell (2017) BDRip-HEVC 1080p от HEVC-CLUB | Лицензия через torrent

 
 
Автор Сообщение

Galfimbul

avatar Galfimbul


Год выхода: 2017
Страна / Студия: США, Индия, Гонконг, Китай, Великобритания / Paramount Pictures, DreamWorks, Reliance Entertainment
Жанр: фантастика, боевик, триллер, драма
Продолжительность: 01:46:57
Перевод: Дублированный (Лицензия)

Режиссер: Руперт Сандерс
В ролях: Скарлетт Йоханссон, Йохан Филип Асбек, Такеши Китано, Жюльетт Бинош, Майкл Питт, Чин Хань, Дануся Самал, Ласарус Ратуэре, Ютака Идзумихара, Таванда Маниймо

Описание: Кибертехнологии подчинили себе все сферы жизни, а самые опасные преступники переместились в виртуальное пространство. Киборг-гибрид, стоящий во главе элитного подразделения полиции, идет по следу могущественного хакера.

Качество: BDRip 1080p
Видео: HEVC/H.265, 1920x1080, ~5501 Kbps
Аудио 1: AC3, 6 ch, 640 Kbps - Русский, дублированный
Аудио 2: AC3, 6 ch, 640 Kbps - Английский
Субтитры: Русские (форсированные, полные), английские


<span style="color:black;">

Общее
Уникальный идентификатор : 155189087047518428259022117910553274743 (0x74C054BB05076D31FAD68662055FA977)
Полное имя : R:Ghost in the Shell (2017) BDRip-HEVC 1080p 10 bit.mkv
Формат : Matroska
Версия формата : Version 4 / Version 2
Размер файла : 5,17 Гбайт
Продолжительность : 1 ч. 46 м.
Общий поток : 6918 Кбит/сек
Название фильма : Призрак в доспехах
Программа кодирования : XviD4PSP 7.0.501 PRO
Библиотека кодирования : Lavf57.71.100
ErrorDetectionType : Per level 1
Attachments : poster.jpg
ACTORS : Скарлетт Йоханссон, Пилу Асбек,
COUNTRY : США
DATE : 2017
DIRECTOR : Руперт Сандерс
ENCODING_INFO : MATROSKA,WEBM > MKV Пользовательский / H264 > X265 CRF 19.5 Medium / AC3 > AC3 CBR 640kbps / TRUEHD > AC3 CBR 640kbps
GENRE : фантастика, боевик, триллер
HD_VIDEO : 1
Язык : und
MEDIA_TYPE : 9
ORIGINAL_TITLE : Ghost in the Shell

Видео
Идентификатор : 1
Формат : HEVC
Формат/Информация : High Efficiency Video Coding
Профиль формата : Main [email protected]@High
Идентификатор кодека : V_MPEGH/ISO/HEVC
Продолжительность : 1 ч. 46 м.
Битрейт : 5501 Кбит/сек
Ширина : 1920 пикселей
Высота : 1080 пикселей
Соотношение сторон : 16:9
Режим частоты кадров : Постоянный
Частота кадров : 23,976 (24000/1001) кадра/сек
Цветовое пространство : YUV
Субдискретизация насыщенности : 4:2:0
Битовая глубина : 10 бит
Бит/(Пиксели*Кадры) : 0.111
Размер потока : 4,11 Гбайт (80%)
Заголовок : Призрак в доспехах
Библиотека кодирования : x265 3.1+7-147fb92c5ed5:[Windows][clang 8.0.0][64 bit] 10bit
Настройки программы : cpuid=1111039 / frame-threads=13 / wpp / no-pmode / no-pme / no-psnr / no-ssim / log-level=3 / input-csp=1 / input-res=1920x1080 / interlace=0 / total-frames=0 / level-idc=41 / high-tier=1 / uhd-bd=0 / ref=5 / allow-non-conformance / no-repeat-headers / annexb / no-aud / no-hrd / info / hash=0 / no-temporal-layers / open-gop / min-keyint=23 / keyint=240 / gop-lookahead=0 / bframes=8 / b-adapt=2 / b-pyramid / bframe-bias=0 / rc-lookahead=60 / lookahead-slices=4 / scenecut=60 / radl=0 / no-splice / no-intra-refresh / ctu=64 / min-cu-size=8 / rect / amp / max-tu-size=32 / tu-inter-depth=4 / tu-intra-depth=4 / limit-tu=4 / rdoq-level=2 / dynamic-rd=0.00 / no-ssim-rd / signhide / no-tskip / nr-intra=0 / nr-inter=0 / no-constrained-intra / no-strong-intra-smoothing / max-merge=5 / limit-refs=1 / limit-modes / me=3 / subme=7 / merange=57 / temporal-mvp / no-hme / weightp / weightb / no-analyze-src-pics / deblock=-3:-3 / no-sao / no-sao-non-deblock / rd=6 / no-early-skip / no-rskip / no-fast-intra / no-tskip-fast / no-cu-lossless / b-intra / no-splitrd-skip / rdpenalty=0 / psy-rd=2.00 / psy-rdoq=1.00 / no-rd-refine / no-lossless / cbqpoffs=0 / crqpoffs=0 / rc=crf / crf=19.5 / qcomp=0.60 / qpstep=4 / stats-write=0 / stats-read=0 / vbv-maxrate=50000 / vbv-bufsize=50000 / vbv-init=0.9 / crf-max=30.0 / crf-min=0.0 / ipratio=1.40 / pbratio=1.30 / aq-mode=2 / aq-strength=1.00 / no-cutree / zone-count=0 / no-strict-cbr / qg-size=32 / no-rc-grain / qpmax=69 / qpmin=0 / no-const-vbv / sar=1 / overscan=0 / videoformat=5 / range=0 / colorprim=1 / transfer=1 / colormatrix=1 / chromaloc=0 / display-window=0cll=0,0 / min-luma=0 / max-luma=1023 / log2-max-poc-lsb=8 / vui-timing-info / vui-hrd-info / slices=1 / no-opt-qp-pps / no-opt-ref-list-length-pps / no-multi-pass-opt-rps / scenecut-bias=0.05 / no-opt-cu-delta-qp / no-aq-motion / no-hdr / no-hdr-opt / no-dhdr10-opt / no-idr-recovery-sei / analysis-reuse-level=5 / scale-factor=0 / refine-intra=0 / refine-inter=0 / refine-mv=0 / refine-ctu-distortion=0 / no-limit-sao / ctu-info=0 / no-lowpass-dct / refine-analysis-type=131074 / copy-pic=1 / max-ausize-factor=1.0 / no-dynamic-refine / no-single-sei / no-hevc-aq / no-svt / no-field / qp-adaptation-range=1.00
Язык : English
Default : Да
Forced : Нет
Цветовой диапазон : Limited
Основные цвета : BT.709
Характеристики трансфера : BT.709
Коэффициенты матрицы : BT.709

Аудио #1
Идентификатор : 2
Формат : AC-3
Формат/Информация : Audio Coding 3
Идентификатор кодека : A_AC3
Продолжительность : 1 ч. 46 м.
Вид битрейта : Постоянный
Битрейт : 640 Кбит/сек
Каналы : 6 каналов
Расположение каналов : Front: L C R, Side: L R, LFE
Частота : 48,0 КГц
Частота кадров : 31,250 кадров/сек (1536 SPF)
Битовая глубина : 16 бит
Метод сжатия : С потерями
Размер потока : 490 Мбайт (9%)
Заголовок : Дубляж (Blu-Ray)
Язык : Russian
ServiceKind/Strin : Complete Main
Default : Да
Forced : Нет

Аудио #2
Идентификатор : 3
Формат : AC-3
Формат/Информация : Audio Coding 3
Идентификатор кодека : A_AC3
Продолжительность : 1 ч. 46 м.
Вид битрейта : Постоянный
Битрейт : 640 Кбит/сек
Каналы : 6 каналов
Расположение каналов : Front: L C R, Side: L R, LFE
Частота : 48,0 КГц
Частота кадров : 31,250 кадров/сек (1536 SPF)
Битовая глубина : 16 бит
Метод сжатия : С потерями
Размер потока : 490 Мбайт (9%)
Заголовок : Оригинал
Язык : English
ServiceKind/Strin : Complete Main
Default : Нет
Forced : Нет

Текст #1
Идентификатор : 4
Формат : UTF-8
Идентификатор кодека : S_TEXT/UTF8
Идентификатор кодека/Информация : UTF-8 Plain Text
Заголовок : forced
Язык : Russian
Default : Да
Forced : Нет

Текст #2
Идентификатор : 5
Формат : UTF-8
Идентификатор кодека : S_TEXT/UTF8
Идентификатор кодека/Информация : UTF-8 Plain Text
Заголовок : full
Язык : Russian
Default : Нет
Forced : Нет

Текст #3
Идентификатор : 6
Формат : UTF-8
Идентификатор кодека : S_TEXT/UTF8
Идентификатор кодека/Информация : UTF-8 Plain Text
Заголовок : full
Язык : English
Default : Нет
Forced : Нет

Меню
00:00:00.000 : :Chapter 01
00:08:09.322 : :Chapter 02
00:14:39.962 : :Chapter 03
00:21:26.493 : :Chapter 04
00:28:02.681 : :Chapter 05
00:34:13.217 : :Chapter 06
00:39:27.615 : :Chapter 07
00:43:57.801 : :Chapter 08
00:51:49.815 : :Chapter 09
00:55:19.065 : :Chapter 10
01:01:06.871 : :Chapter 11
01:07:49.732 : :Chapter 12
01:14:36.972 : :Chapter 13
01:20:31.743 : :Chapter 14
01:27:46.177 : :Chapter 15
01:33:41.407 : :Chapter 16
01:38:00.082 : :Chapter 17
01:46:56.451 : :Chapter 18

Источник http://listRutor.org

Внимание! AdBlock блокирует показ скриншотов, все вопросы к разработчикам )))
Трекер:  [ 04-Май-2020 19:40 ]

  

Скачать .torrent

Размер .torrent файла 13 KB


Размер: 5.17 GB
Хэш (hash) релиза: 5f0d7cad74707f1ee5d8299d8bb27893988e9179
Подписка на обновления:

Торренты, похожие на Призрак в доспехах Ghost in the Shell скачать торрент

Форум Название Автор Размер S L Добавлен
Зарубежные фильмы 2016-2019 (Новинки зарубежного кино) ·· Призрак в доспехах / Ghost in the Shell (2017) BDRip 1080p | D, A | Лицензия Galfimbul 1850596804117.24 GB 0 0 1529226036

12:00

17-Июн-18

Зарубежные фильмы до 2016 ·· Призрак в доспехах / Ghost in the Shell (Руперт Сандерс / Rupert Sanders) [2017, Великобритания, Китай, Индия, Гонконг, США, Фантастика, боевик, триллер, драма, криминал, детектив, DVD9] R5 Dub + Sub Rus + Original Eng Galfimbul 77703843847.24 GB 0 0 1525024915

21:01

29-Апр-18

Зарубежные фильмы 2016-2019 (Новинки зарубежного кино) ·· Призрак в доспехах / Ghost in the Shell (Руперт Сандерс / Rupert Sanders) [2017, США, Индия, Китай, Япония, Гонконг, Великобритания, Новая Зеландия, Канада, Австралия, фантастика, боевик, триллер, драма, детектив, HDRip] AVO (Немахов) Galfimbul 15696588801.46 GB 0 0 1509294616

19:30

29-Окт-17

Трейлеры и дополнительные материалы ·· Призрак в Доспехах / Ghost in the Shell (Руперт Сандерс) [2017, Фантастика | Боевик | Триллер, BDRip 720p] дополнительные материалы Galfimbul 16537201251.54 GB 0 0 1502543282

16:08

12-Авг-17

Зарубежные фильмы до 2016 ·· Призрак в доспехах / Ghost in the Shell (Руперт Сандерс / Rupert Sanders)[2017, США, фантастика, боевик, триллер, Blu-Ray>DVD9 (Custom)] DUB+Eng+Sub rus,eng Galfimbul 78562672647.32 GB 0 0 1501355191

22:06

29-Июл-17

Зарубежные фильмы до 2016 ·· Призрак в доспехах / Ghost in the Shell (Руперт Сандерс / Rupert Sanders)[2017, США, фантастика, боевик, триллер, Blu-Ray>DVD5 (Custom)] DUB+Eng+Sub rus,eng Galfimbul 46960599044.37 GB 0 0 1501355180

22:06

29-Июл-17

Зарубежные фильмы 2016-2019 (Новинки зарубежного кино) ·· Призрак в доспехах / Ghost in the Shell (Руперт Сандерс / Rupert Sanders) [2017, США, Индия, Китай, Фантастика, боевик, триллер, BDRip-AVC] Dub + Sub Rus, Eng + Original Eng Galfimbul 26058997602.43 GB 0 0 1501174879

20:01

27-Июл-17

Зарубежные фильмы 2016-2019 (Новинки зарубежного кино) ·· Призрак в доспехах / Ghost in the Shell (Руперт Сандерс / Rupert Sanders) [2017, США, фантастика, боевик, триллер, драма, криминал, Blu-Ray CEE] Лицензия Galfimbul 4096378879938.15 GB 0 0 1500634244

13:50

21-Июл-17

Зарубежные фильмы 2016-2019 (Новинки зарубежного кино) ·· Призрак в доспехах / Ghost in the Shell (Руперт Сандерс / Rupert Sanders) [2017, США, фантастика, боевик, триллер, драма, криминал, BDRip 1080p] Лицензия Galfimbul 1626730383615.15 GB 0 0 1500630621

12:50

21-Июл-17

Зарубежные фильмы 2016-2019 (Новинки зарубежного кино) ·· Призрак в доспехах / Ghost in the Shell (Руперт Сандерс / Rupert Sanders) [2017, США, фантастика, боевик, триллер, драма, криминал, BDRip 720p] Лицензия Galfimbul 54404230515.07 GB 0 0 1500629423

12:30

21-Июл-17

Зарубежные фильмы 2016-2019 (Новинки зарубежного кино) ·· Призрак в доспехах / Ghost in the Shell (Руперт Сандерс / Rupert Sanders) [2017, США, фантастика, боевик, триллер, драма, криминал, BDRip-AVC] Dub (iTunes) + Sub (Rus) Galfimbul 15179688221.41 GB 0 0 1500294622

15:30

17-Июл-17

Зарубежные фильмы 2016-2019 (Новинки зарубежного кино) ·· Призрак в доспехах / Ghost in the Shell (Руперт Сандерс / Rupert Sanders) [2017, США, фантастика, боевик, триллер, драма, криминал, детектив, HDRip] iTunes Galfimbul 22049812482.05 GB 0 0 1499893333

00:02

13-Июл-17

Зарубежные фильмы 2016-2019 (Новинки зарубежного кино) ·· Призрак в доспехах / Ghost in the Shell (Руперт Сандерс / Rupert Sanders) [2017, США, фантастика, боевик, триллер, драма, криминал, детектив, HDRip] iTunes Galfimbul 14678630401.37 GB 0 0 1499856010

13:40

12-Июл-17

Зарубежные фильмы 2016-2019 (Новинки зарубежного кино) ·· Призрак в доспехах / Ghost in the Shell (Руперт Сандерс / Rupert Sanders) [2017, США, фантастика, боевик, триллер, драма, криминал, детектив, BDRip 1080p] iTunes Galfimbul 106303004319.9 GB 0 0 1499850606

12:10

12-Июл-17

Зарубежные фильмы 2016-2019 (Новинки зарубежного кино) ·· Призрак в доспехах / Ghost in the Shell (Руперт Сандерс / Rupert Sanders) [2017, США, фантастика, боевик, триллер, драма, криминал, детектив, WEB-DLRip] Dub + Sub Rus, Eng + Original Eng Galfimbul 23416076092.18 GB 0 0 1499769011

13:30

11-Июл-17

Зарубежные фильмы 2016-2019 (Новинки зарубежного кино) ·· Призрак в доспехах / Ghost in the Shell (Руперт Сандерс / Rupert Sanders) [2017, США, фантастика, боевик, триллер, драма, криминал, детектив, WEB-DLRip] Dub Galfimbul 15740538881.47 GB 0 0 1499688115

15:01

10-Июл-17

Зарубежные фильмы 2016-2019 (Новинки зарубежного кино) ·· Призрак в доспехах / Ghost in the Shell (Руперт Сандерс / Rupert Sanders) [2017, США, Япония, Гонконг, фантастика, боевик, триллер, WEB-DLRip-AVC] Dub + Original + Sub (rus, eng) Galfimbul 22075620932.06 GB 0 0 1499688110

15:01

10-Июл-17

Зарубежные фильмы 2016-2019 (Новинки зарубежного кино) ·· Призрак в доспехах / Ghost in the Shell (Руперт Сандерс / Rupert Sanders) [2017, США, Индия, Китай, Япония, фантастика, боевик, триллер, драма, детектив, WEB-DLRip] Dub Galfimbul 780877824745 MB 0 0 1499688104

15:01

10-Июл-17

Зарубежные фильмы 2016-2019 (Новинки зарубежного кино) ·· Призрак в доспехах / Ghost in the Shell (Руперт Сандерс) [2017 г., Фантастика, боевик, триллер, драма, криминал, WEB-DLRip] Galfimbul 780021760744 MB 0 0 1499564411

04:40

9-Июл-17

Еще никто не оставлял запись к записи скачать торрент Призрак в доспехах Ghost in the Shell . Будь первым!

!Обратная связь