Скачать через торрент Запрос в друзья Friend Request Фильм бесплатно в хорошем качестве torrent

Скачивайте на UnionPeer.org фильмы через торрент без регистрации. Новинки кино в хорошем качестве через торрент. На UnionPeer.org можно скачать через торрент фильмы 2014 и 2015 годов. Самые новые фильмы.

Скачать торрент Запрос в друзья Friend Request бесплатно через .torrent фильм мультфильм сериал

Статистика раздачи
Размер:  4.49 GB   |    Зарегистрирован:  6 лет 6 месяцев   |    .torrent скачан:  32 раза   |   
Раздают:  1  
 

Скачать Запрос в друзья / Friend Request (Симон Ферхоэвен / Simon Verhoeven) [2016, Германия, ЮАР, ужасы, триллер, BDRip 720p] Dub + Sub Eng + Original Eng через torrent

 
 
Автор Сообщение

Galfimbul

avatar Galfimbul


Запрос в друзья / Friend Request

Страна: Германия, ЮАР
Студия: Seven Pictures, Two Oceans Production (TOP), Cape Town, Wiedemann & Berg Filmproduktion
Жанр: ужасы, триллер
Год выпуска: 2016
Продолжительность: 01:32:15Перевод: Профессиональный (дублированный)
Субтитры: английские
Оригинальная аудио дорожка: английскаяРежиссер: Симон Ферхоэвен / Simon VerhoevenВ ролях: Алисия Дебнем Кери, Уильям Моусли, Коннор Паоло, Бритт Морган, Брук Маркам, Шон Маркетт, Лизль Алерс, Шэшони Холл, Сьюзэн Дэнфорд, Ли РавивОписание: Вас добавляет в друзья одноклассник, однокурсник или коллега с работы, с которым вы практически никогда не общались, и начинает буквально атаковать вас сообщениями, почему-то решив, что вы с ним лучшие друзья. Знакомая ситуация? В подобную попадает Лора — главная героиня леденящего кровь триллера «Запрос в друзья». Решение удалить из френд-листа навязчивую и странноватую однокурсницу приведет к таким последствиям, которые не смогли бы предугадать даже самые большие любители хорроров.Доп. информация: Сохранил порядок глав с исходного Blu-Ray Remux-а.Сэмпл: http://sendfile.su/1354166Тип релиза: BDRip 720p
Контейнер: MKV
Видео кодек: H.264
Аудио кодек: DTS, AC-3
Видео: MPEG4/AVC, 2.35:1, 23.976 (24000/1001) FPS, 1280x544p, 4941 kb/s
Аудио 1: Русский, AC-3, 48.0 kHz, 5.1, 384 kb/s | дублированное [iTunes]
Аудио 2: Английский, DTS, 48.0 kHz, 5.1, 1509 kb/s | оригинал
Формат субтитров: softsub (SRT)
Релиз:
x264
x264 [info]: frame I:1181 Avg QP:15.09 size:102571
x264 [info]: frame P:26689 Avg QP:16.71 size: 50523
x264 [info]: frame B:104829 Avg QP:18.76 size: 19494
x264 [info]: consecutive B-frames: 2.5% 2.0% 5.2% 13.5% 16.2% 35.6% 12.4% 8.0% 1.9% 1.0% 0.7% 1.1%

Формат : Matroska
Версия формата : Version 2
Размер файла : 4,49 Гбайт
Продолжительность : 1 ч. 32 м.
Общий поток : 6973 Кбит/сек
Название фильма : ripped by LION1234
Дата кодирования : UTC 2017-08-09 08:17:00
Программа кодирования : mkvmerge v7.6.0 ('Garden of Dreams') 32bit built on Feb 11 2015 00:18:47
Библиотека кодирования : libebml v1.3.1 + libmatroska v1.4.2
Обложка : Yes
Attachments : cover.png

Видео
Идентификатор : 1
Формат : AVC
Формат/Информация : Advanced Video Codec
Профиль формата : [email protected]
Параметр CABAC формата : Да
Параметр RefFrames формата : 12 кадров
Идентификатор кодека : V_MPEG4/ISO/AVC
Продолжительность : 1 ч. 32 м.
Битрейт : 4941 Кбит/сек
Ширина : 1280 пикселей
Высота : 544 пикселя
Соотношение сторон : 2,35:1
Режим частоты кадров : Постоянный
Частота кадров : 23,976 (24000/1001) кадра/сек
Цветовое пространство : YUV
Субдискретизация насыщенности : 4:2:0
Битовая глубина : 8 бит
Тип развёртки : Прогрессивная
Бит/(Пиксели*Кадры) : 0.296
Размер потока : 3,18 Гбайт (71%)
Заголовок : Friend.Request.2016 - <<LION1234>>
Библиотека кодирования : x264 core 152 r2851 ba24899
Настройки программы : cabac=1 / ref=12 / deblock=1:-3:-3 / analyse=0x3:0x113 / me=umh / subme=10 / psy=1 / psy_rd=0.90:0.00 / mixed_ref=1 / me_range=24 / chroma_me=1 / trellis=2 / 8x8dct=1 / cqm=0 / deadzone=21,11 / fast_pskip=1 / chroma_qp_offset=-2 / threads=6 / lookahead_threads=1 / sliced_threads=0 / nr=0 / decimate=0 / interlaced=0 / bluray_compat=0 / constrained_intra=0 / bframes=11 / b_pyramid=2 / b_adapt=2 / b_bias=0 / direct=1 / weightb=1 / open_gop=0 / weightp=2 / keyint=250 / keyint_min=23 / scenecut=40 / intra_refresh=0 / rc_lookahead=40 / rc=crf / mbtree=0 / crf=16.7 / qcomp=0.60 / qpmin=0 / qpmax=69 / qpstep=4 / vbv_maxrate=62500 / vbv_bufsize=78125 / crf_max=0.0 / nal_hrd=none / filler=0 / ip_ratio=1.40 / pb_ratio=1.30 / aq=2:0.80
Default : Да
Forced : Нет
Statistics Tags Issue : mkvmerge v14.0.0 ('Flow') 32bit 2017-08-09 01:41:55 / mkvmerge v7.6.0 ('Garden of Dreams') 32bit built on Feb 11 2015 00:18:47 2017-08-09 08:17:00
FromStats_BitRate : 5077863
FromStats_Duration : 01:32:14.654000000
FromStats_FrameCount : 132699
FromStats_StreamSize : 3513027492

Аудио #1
Идентификатор : 2
Формат : AC-3
Формат/Информация : Audio Coding 3
Параметр Endianness формата : Big
Идентификатор кодека : A_AC3
Продолжительность : 1 ч. 32 м.
Вид битрейта : Постоянный
Битрейт : 384 Кбит/сек
Каналы : 6 каналов
Расположение каналов : Front: L C R, Side: L R, LFE
Частота : 48,0 КГц
Частота кадров : 31,250 кадров/сек (1536 SPF)
Битовая глубина : 16 бит
Метод сжатия : С потерями
Размер потока : 253 Мбайт (6%)
Заголовок : дубляж
Язык : Russian
ServiceKind/String : Complete Main
Default : Да
Forced : Нет

Аудио #2
Идентификатор : 3
Формат : DTS
Формат/Информация : Digital Theater Systems
Режим : 16
Параметр Endianness формата : Big
Идентификатор кодека : A_DTS
Продолжительность : 1 ч. 32 м.
Вид битрейта : Постоянный
Битрейт : 1509 Кбит/сек
Каналы : 6 каналов
Расположение каналов : Front: L C R, Side: L R, LFE
Частота : 48,0 КГц
Частота кадров : 93,750 кадра/сек (512 SPF)
Битовая глубина : 24 бит
Метод сжатия : С потерями
Размер потока : 996 Мбайт (22%)
Заголовок : оригинал
Язык : English
Default : Нет
Forced : Нет

Текст
Идентификатор : 4
Формат : UTF-8
Идентификатор кодека : S_TEXT/UTF8
Идентификатор кодека/Информация : UTF-8 Plain Text
Заголовок : английские
Язык : English
Default : Нет
Forced : Нет

Меню
00:00:00.000 : en:Chapter 01
00:03:59.906 : en:Chapter 02
00:07:50.220 : en:Chapter 03
00:14:23.071 : en:Chapter 04
00:18:36.574 : en:Chapter 05
00:23:29.992 : en:Chapter 06
00:27:39.449 : en:Chapter 07
00:32:51.261 : en:Chapter 08
00:38:16.586 : en:Chapter 09
00:43:58.177 : en:Chapter 10
00:47:32.433 : en:Chapter 11
00:54:25.721 : en:Chapter 12
00:57:55.305 : en:Chapter 13
01:02:06.806 : en:Chapter 14
01:06:10.884 : en:Chapter 15
01:11:01.549 : en:Chapter 16
01:17:48.247 : en:Chapter 17
01:23:16.783 : en:Chapter 18
01:31:48.294 : en:Chapter 19
01:35:52.705 : en:Chapter 20
RIP--------------------------------------Source



Внимание! AdBlock блокирует показ скриншотов, все вопросы к разработчикам )))
Трекер:  [ 12-Авг-2017 14:01 ]

  

Скачать .torrent

Размер .torrent файла 11 KB


Размер: 4.49 GB
Хэш (hash) релиза: d682a659f8f4b691b2e14406764ff24839d5a0a8
Подписка на обновления:

Торренты, похожие на Запрос в друзья Friend Request скачать торрент

Форум Название Автор Размер S L Добавлен
Зарубежные фильмы до 2016 ·· Запрос в друзья / Friend Request (Симон Ферхоэвен / Simon Verhoeven) [2016, Германия, ЮАР, Ужасы, триллер, DVD9] R5 Dub Galfimbul 52594196484.9 GB 0 0 1526670112

22:01

18-Май-18

Зарубежные фильмы 2016-2019 (Новинки зарубежного кино) ·· Запрос в друзья / Friend Request (Симон Ферхоэвен) [2016, Ужасы, триллер, BDRip 1080p] iTunes Galfimbul 82735526287.71 GB 0 0 1470940911

21:41

11-Авг-16

Зарубежные фильмы 2016-2019 (Новинки зарубежного кино) ·· Запрос в друзья / Friend Request (Симон Ферхоэвен / Simon Verhoeven) [2016, Германия, Триллер, ужасы, HDRip] Dub (iTunes) Galfimbul 780925166745 MB 0 0 1467027343

14:35

27-Июн-16

Зарубежные фильмы 2016-2019 (Новинки зарубежного кино) ·· Запрос в друзья / Friend Request (Симон Ферхоэвен / Simon Verhoeven) [2016, Германия, Триллер, ужасы, HDRip] Dub (iTunes) Galfimbul 15704637441.46 GB 0 0 1466950370

17:12

26-Июн-16

Зарубежные фильмы 2016-2019 (Новинки зарубежного кино) ·· Запрос в друзья / Friend Request (Симон Ферхоэвен / Simon Verhoeven) [2016, Германия, Триллер, BDRip 720p] iTunes Galfimbul 46934281224.37 GB 0 0 1466838755

10:12

25-Июн-16

Зарубежные фильмы 2016-2019 (Новинки зарубежного кино) ·· Запрос в друзья / Friend Request (Симон Ферхоэвен / Simon Verhoeven) [2016, Германия, Триллер, HDRip] iTunes Galfimbul 15614648321.45 GB 0 0 1466838734

10:12

25-Июн-16

Зарубежные фильмы 2016-2019 (Новинки зарубежного кино) ·· Запрос в друзья / Friend Request (Симон Ферхоэвен / Simon Verhoeven) [2016, Германия, Триллер, BDRip 720p] Line Galfimbul 26551630692.47 GB 0 0 1466570685

07:44

22-Июн-16

Зарубежные фильмы 2016-2019 (Новинки зарубежного кино) ·· Запрос в друзья / Friend Request (Симон Ферхоэвен / Simon Verhoeven) [2016, Германия, Триллер, SATRip] Dub (Мосфильм) Galfimbul 783517696747 MB 0 0 1464155872

08:57

25-Май-16

Зарубежные фильмы 2016-2019 (Новинки зарубежного кино) ·· Запрос в друзья / Friend Request (Симон Ферхоэвен / Simon Verhoeven) [2016, Германия, Триллер, ужасы, SATRip] Dub (Мосфильм) Galfimbul 14641520641.36 GB 0 0 1463575230

15:40

18-Май-16

Еще никто не оставлял запись к записи скачать торрент Запрос в друзья Friend Request . Будь первым!

!Обратная связь