Скачать через торрент Запрос в друзья Friend Request Фильм бесплатно в хорошем качестве torrent

Скачивайте на UnionPeer.org фильмы через торрент без регистрации. Новинки кино в хорошем качестве через торрент. На UnionPeer.org можно скачать через торрент фильмы 2014 и 2015 годов. Самые новые фильмы.

Скачать торрент Запрос в друзья Friend Request бесплатно через .torrent фильм мультфильм сериал

Статистика раздачи
Размер:  4.9 GB   |    Зарегистрирован:  5 лет 9 месяцев   |    .torrent скачан:  43 раза   |   
Раздают:  1  
 

Скачать Запрос в друзья / Friend Request (Симон Ферхоэвен / Simon Verhoeven) [2016, Германия, ЮАР, Ужасы, триллер, DVD9] R5 Dub через torrent

 
 
Автор Сообщение

Galfimbul

avatar Galfimbul


Запрос в друзья / Friend Request
«Be careful who you click with»
Страна: Германия, ЮАР
Студии: Warner Bros. Pictures, Wiedemann & Berg Filmproduktion, Seven Pictures, Two Oceans Production (TOP), Cape Town
Жанр: Ужасы, триллер
Год выпуска: 2016
Дата мировой премьеры: 7 января 2016
Дата российской премьеры: 17 марта 2016, «Люксор»
Дата выхода DVD релиза: 28 сентября 2016, «НД Плэй»
Продолжительность: 01:28:38
Перевод: Профессиональный (дублированный) [Лицензия]
Субтитры: Нет
Оригинальная аудиодорожка: Нет
Режиссер: Симон Ферхоэвен / Simon Verhoeven
Продюсеры: Байрон Аллен, Мэттью Баллен, Richard Barner
Актеры: Алисия Дебнем-Кери, Уильям Моусли, Коннор Паоло, Бритт Морган, Брук Маркам, Шон Маркетт, Лизль Алерс, Шэшони Холл, Сьюзэн Дэнфорд, Ли Равив
Описание:
Вас добавляет в друзья одноклассник, однокурсник или коллега с работы, с которым вы практически никогда не общались, и начинает буквально атаковать вас сообщениями, почему-то решив, что вы с ним лучшие друзья. Знакомая ситуация? В подобную попадает Лора — главная героиня леденящего кровь триллера «Запрос в друзья». Решение удалить из френд-листа навязчивую и странноватую однокурсницу приведет к таким последствиям, которые не смогли бы предугадать даже самые большие любители хорроров.

Доп. материалы: Анонсы

Качество: DVD9 R5
Формат: DVD-Video

Видео: MPEG-2, 720x576@1024x576 (PAL 16:9), ~7000 Кбит/сек
Аудио: AC3 5.1, 448 Кбит/сек [Русский - дублированный]
Title: Friend Request (2016) DVD9 R5
Size: 4.90 Gb ( 5 136 152,00 KBytes ) - DVD-9
Enabled regions: 1, 2, 3, 4, 5, 6, 7, 8

VTS_01 :
Play Length: 00:00:15
Video: PAL 4:3 (720x576) VBR
Audio:
Not specified (Dolby AC3, 2 ch)

VTS_02 :
Play Length: 00:00:05
Video: PAL 16:9 (720x576) VBR, Auto Letterboxed
Audio:
Not specified (Dolby AC3, 2 ch)

VTS_03 :
Play Length: 00:02:39
Video: PAL 16:9 (720x576) VBR, Auto Letterboxed
Audio:
Russian (Dolby AC3, 2 ch)

VTS_04 :
Play Length: 00:02:09
Video: PAL 16:9 (720x576) VBR, Auto Letterboxed
Audio:
Russian (Dolby AC3, 2 ch)

VTS_05 :
Play Length: 00:01:16
Video: PAL 16:9 (720x576) VBR, Auto Letterboxed
Audio:
Russian (Dolby AC3, 2 ch)

VTS_06 :
Play Length: 00:01:21
Video: PAL 16:9 (720x576) VBR, Auto Letterboxed
Audio:
Russian (Dolby AC3, 2 ch)

VTS_07 :
Play Length: 01:28:38
Video: PAL 16:9 (720x576) VBR, Auto Letterboxed
Audio:
Russian, AC3, 3/2 (L,C,R,SL,SR)+LFE ch, 448 kbps, Delay 0 mSec

VTS_08 :
Play Length: 00:00:01
Video: PAL 16:9 (720x576) VBR, Auto Letterboxed
Audio:
Russian (Dolby AC3, 2 ch)
Общее
Полное имя : G:\Torrents\Friend Request (2016) DVD9 R5\VIDEO_TS\VTS_07_1.VOB
Формат : MPEG-PS
Размер файла : 1000 Мбайт
Продолжительность : 18 м. 21 с.
Режим общего битрейта : Переменный
Общий поток : 7614 Кбит/сек

Видео
Идентификатор : 224 (0xE0)
Формат : MPEG Video
Версия формата : Version 2
Профиль формата : Main@Main
Настройки формата : BVOP
Параметр BVOP формата : Да
Параметр матрицы формата : По умолчанию
Параметр GOP формата : Variable
Продолжительность : 18 м. 21 с.
Вид битрейта : Переменный
Битрейт : 7014 Кбит/сек
Максимальный битрейт : 8500 Кбит/сек
Ширина : 720 пикселей
Высота : 576 пикселей
Соотношение сторон : 16:9
Частота кадров : 25,000 кадров/сек
Стандарт вещания : PAL
Цветовое пространство : YUV
Субдискретизация насыщенности : 4:2:0
Битовая глубина : 8 бит
Тип развёртки : Прогрессивная
Метод сжатия : С потерями
Бит/(Пиксели*Кадры) : 0.677
Временной код первого кадра : 00:00:00:00
Оригинал временного кода : Group of pictures header
GOP, открыто/закрыто : Открыто
GOP, открыто/закрыто на первом кадре : Закрыто
Размер потока : 921 Мбайт (92%)

Аудио
Идентификатор : 189 (0xBD)-128 (0x80)
Формат : AC-3
Формат/Информация : Audio Coding 3
Параметр Endianness формата : Big
Режим смешивания : DVD-Video
Продолжительность : 18 м. 21 с.
Вид битрейта : Постоянный
Битрейт : 448 Кбит/сек
Каналы : 6 каналов
Расположение каналов : Front: L C R, Side: L R, LFE
Частота : 48,0 КГц
Частота кадров : 31,250 кадров/сек (1536 SPF)
Битовая глубина : 16 бит
Метод сжатия : С потерями
Размер потока : 58,8 Мбайт (6%)
ServiceKind/String : Complete Main

Меню


За предоставленный DVD спасибо большое AKIM2B
Раздаю с 10:00 до 23:00 до 10 скачавших.

Внимание! AdBlock блокирует показ скриншотов, все вопросы к разработчикам )))
Трекер:  [ 18-Май-2018 22:01 ]

  

Скачать .torrent

Размер .torrent файла 26 KB


Размер: 4.9 GB
Хэш (hash) релиза: a13768c55452b1acbe4f9c6091ac16baaba313e0
Подписка на обновления:

Торренты, похожие на Запрос в друзья Friend Request скачать торрент

Форум Название Автор Размер S L Добавлен
Зарубежные фильмы до 2016 ·· Запрос в друзья / Friend Request (Симон Ферхоэвен / Simon Verhoeven) [2016, Германия, ЮАР, ужасы, триллер, BDRip 720p] Dub + Sub Eng + Original Eng Galfimbul 48248975154.49 GB 0 0 1502535951

14:05

12-Авг-17

Зарубежные фильмы 2016-2019 (Новинки зарубежного кино) ·· Запрос в друзья / Friend Request (Симон Ферхоэвен) [2016, Ужасы, триллер, BDRip 1080p] iTunes Galfimbul 82735526287.71 GB 0 0 1470940911

21:41

11-Авг-16

Зарубежные фильмы 2016-2019 (Новинки зарубежного кино) ·· Запрос в друзья / Friend Request (Симон Ферхоэвен / Simon Verhoeven) [2016, Германия, Триллер, ужасы, HDRip] Dub (iTunes) Galfimbul 780925166745 MB 0 0 1467027343

14:35

27-Июн-16

Зарубежные фильмы 2016-2019 (Новинки зарубежного кино) ·· Запрос в друзья / Friend Request (Симон Ферхоэвен / Simon Verhoeven) [2016, Германия, Триллер, ужасы, HDRip] Dub (iTunes) Galfimbul 15704637441.46 GB 0 0 1466950370

17:12

26-Июн-16

Зарубежные фильмы 2016-2019 (Новинки зарубежного кино) ·· Запрос в друзья / Friend Request (Симон Ферхоэвен / Simon Verhoeven) [2016, Германия, Триллер, BDRip 720p] iTunes Galfimbul 46934281224.37 GB 0 0 1466838755

10:12

25-Июн-16

Зарубежные фильмы 2016-2019 (Новинки зарубежного кино) ·· Запрос в друзья / Friend Request (Симон Ферхоэвен / Simon Verhoeven) [2016, Германия, Триллер, HDRip] iTunes Galfimbul 15614648321.45 GB 0 0 1466838734

10:12

25-Июн-16

Зарубежные фильмы 2016-2019 (Новинки зарубежного кино) ·· Запрос в друзья / Friend Request (Симон Ферхоэвен / Simon Verhoeven) [2016, Германия, Триллер, BDRip 720p] Line Galfimbul 26551630692.47 GB 0 0 1466570685

07:44

22-Июн-16

Зарубежные фильмы 2016-2019 (Новинки зарубежного кино) ·· Запрос в друзья / Friend Request (Симон Ферхоэвен / Simon Verhoeven) [2016, Германия, Триллер, SATRip] Dub (Мосфильм) Galfimbul 783517696747 MB 0 0 1464155872

08:57

25-Май-16

Зарубежные фильмы 2016-2019 (Новинки зарубежного кино) ·· Запрос в друзья / Friend Request (Симон Ферхоэвен / Simon Verhoeven) [2016, Германия, Триллер, ужасы, SATRip] Dub (Мосфильм) Galfimbul 14641520641.36 GB 0 0 1463575230

15:40

18-Май-16

Еще никто не оставлял запись к записи скачать торрент Запрос в друзья Friend Request . Будь первым!

!Обратная связь