Скачать через торрент Клетка славы Клетка славы Чавеса Фильм бесплатно в хорошем качестве torrent

Скачивайте на UnionPeer.org фильмы через торрент без регистрации. Новинки кино в хорошем качестве через торрент. На UnionPeer.org можно скачать через торрент фильмы 2014 и 2015 годов. Самые новые фильмы.

Скачать торрент Клетка славы Клетка славы Чавеса бесплатно через .torrent фильм мультфильм сериал

Статистика раздачи
Размер:  1.37 GB   |    Зарегистрирован:  6 лет 6 месяцев   |    .torrent скачан:  16 раз   |   
Раздают:  1  
 

Скачать Клетка славы / Клетка славы Чавеса / Chavez Cage of Glory (Эктор Эчаваррия / Hector Echavarria) [2013, США, драма, спорт, HDTVRip] MVO через torrent

 
 
Автор Сообщение

Galfimbul

avatar Galfimbul


Клетка славы / Клетка славы Чавеса / Chavez Cage of Glory

Страна: США
Жанр: драма, спорт
Год выпуска: 2013
Продолжительность: 01:27:20

Перевод: Профессиональный (многоголосый закадровый)
Субтитры: нет
Оригинальная аудиодорожка: нет

Режиссер: Эктор Эчаваррия / Hector Echavarria

В ролях: Эктор Эчаваррия
Дэнни Трехо
Стивен Бауэр
Пэтрик Килпэтрик
Джеймс Руссо
Патрисия Понсе де Леон
Josh Friehling
Хит Херринг
Сэди Кац
Роберт Миано

Описание: Едва сводя концы с концами и делая всё возможное, чтобы покрыть растущие медицинские счета за лечение сына, Гектор Чавез вынужден вновь обратиться к своей истинной натуре бойца. Его любительские ролики с тематикой смешанных единоборств приобретают огромную популярность в сети и привлекают внимание самой авторитетной международной Федерации ММА. Так сбывается мечта Гектора — ему выпадает возможность сойтись в бою с чемпионом мира, жестоким бойцом, последний противник которого находится в критическом состоянии в той же больнице, что и его собственный сын. У Гектора не остаётся выбора — он должен либо победить, либо умереть, поставив на кон всё, чтобы собрать деньги на операцию во имя спасения жизни своего сына.

Сэмпл: http://multi-up.com/1164823

Качество видео: HDTVRip
Формат видео: AVI

Видео: MPEG4, XviD, 720x400 (16:9), 25.000 fps, 2 043 Kbps (0.284 bit/pixel)
Аудио: AC-3, 48.0 KHz, 2 ch, 192 Kbps, CBR
Общее
Полное имя : M:\Клетка славы Чавеса.avi
Формат : AVI
Формат/Информация : Audio Video Interleave
Размер файла : 1,37 Гбайт
Продолжительность : 1 ч. 27 м.
Общий поток : 2245 Кбит/сек
Название фильма : Клетка славы / Клетка славы Чавеса / Chavez Cage of Glory (2013)
Программа кодирования : VirtualDubMod 1.5.10.2 (build 2540/release)
Библиотека кодирования : VirtualDubMod build 2540/release
Авторское право : miha2154

Видео
Идентификатор : 0
Формат : MPEG-4 Visual
Профиль формата : Advanced Simple@L5
Параметр BVOP формата : 1
Параметр QPel формата : Нет
Параметр GMC формата : Без точки перехода
Параметр матрицы формата : Выборочная
Идентификатор кодека : XVID
Идентификатор кодека/Подсказка : XviD
Продолжительность : 1 ч. 27 м.
Битрейт : 2043 Кбит/сек
Ширина : 720 пикселей
Высота : 400 пикселей
Соотношение сторон : 16:9
Частота кадров : 25,000 кадров/сек
Цветовое пространство : YUV
Субдискретизация насыщенности : 4:2:0
Битовая глубина : 8 бит
Тип развёртки : Прогрессивная
Метод сжатия : С потерями
Бит/(Пиксели*Кадры) : 0.284
Размер потока : 1,25 Гбайт (91%)
Библиотека кодирования : XviD 65

Аудио
Идентификатор : 1
Формат : AC-3
Формат/Информация : Audio Coding 3
Расширение режима : CM (complete main)
Параметр Endianness формата : Big
Идентификатор кодека : 2000
Продолжительность : 1 ч. 27 м.
Вид битрейта : Постоянный
Битрейт : 192 Кбит/сек
Каналы : 2 канала
Расположение каналов : Front: L R
Частота : 48,0 КГц
Частота кадров : 31,250 кадров/сек (1536 spf)
Метод сжатия : С потерями
Размер потока : 120 Мбайт (9%)
Выравнивание : Разделение по промежуткам
Продолжительность промежутка : 40 мс. (1,00 видеокадр)
Время предзагрузки промежутка : 500 мс.
Заголовок : Профессиональный (многоголосый закадровый)


Внимание! AdBlock блокирует показ скриншотов, все вопросы к разработчикам )))
Трекер:  [ 16-Авг-2017 16:30 ]

  

Скачать .torrent

Размер .torrent файла 14 KB


Размер: 1.37 GB
Хэш (hash) релиза: b2fba6b9daa1160cd82d73e25a1601a7ee245c4c
Подписка на обновления:

Торренты, похожие на Клетка славы Клетка славы Чавеса скачать торрент

Форум Название Автор Размер S L Добавлен
Зарубежные фильмы до 2016 ·· Клетка славы / Клетка славы Чавеса / Chavez Cage of Glory (Эктор Эчаваррия / Hector Echavarria) [2013, США, драма, спорт, WEB-DLRip] Galfimbul 15624335361.46 GB 0 0 1517981491

08:31

7-Фев-18

Зарубежные фильмы до 2016 ·· Клетка славы / Клетка славы Чавеса / Chavez Cage of Glory (Эктор Эчаваррия / Hector Echavarria) [2013, США, драма, спорт, WEB-DL 720p] Galfimbul 33045276703.08 GB 0 0 1517981469

08:31

7-Фев-18

Еще никто не оставлял запись к записи скачать торрент Клетка славы Клетка славы Чавеса . Будь первым!

!Обратная связь