Скачать через торрент Клетка славы Клетка славы Чавеса Фильм бесплатно в хорошем качестве torrent

Скачивайте на UnionPeer.org фильмы через торрент без регистрации. Новинки кино в хорошем качестве через торрент. На UnionPeer.org можно скачать через торрент фильмы 2014 и 2015 годов. Самые новые фильмы.

Скачать торрент Клетка славы Клетка славы Чавеса бесплатно через .torrent фильм мультфильм сериал

Статистика раздачи
Размер:  1.46 GB   |    Зарегистрирован:  6 лет   |    .torrent скачан:  22 раза   |   
Раздают:  1  
 

Скачать Клетка славы / Клетка славы Чавеса / Chavez Cage of Glory (Эктор Эчаваррия / Hector Echavarria) [2013, США, драма, спорт, WEB-DLRip] через torrent

 
 
Автор Сообщение

Galfimbul

avatar Galfimbul


Клетка славы / Клетка славы Чавеса / Chavez Cage of Glory

Страна: США
Производство: Destiny Entertainment Productions
Год выпуска: 2013
Жанр: драма, спорт
Продолжительность: 01:32:32

Режиссер: Эктор Эчаваррия
Автор сценария: Эктор Эчаваррия

В ролях: Эктор Эчаваррия, Дэнни Трехо, Стивен Бауэр, Пэтрик Килпэтрик, Джеймс Руссо, Патрисия Понсе де Леон, Хит Херринг, Сэди Кац

Описание: Едва сводя концы с концами и делая всё возможное, чтобы покрыть растущие медицинские счета за лечение сына, Гектор Чавез вынужден вновь обратиться к своей истинной натуре бойца. Его любительские ролики с тематикой смешанных единоборств приобретают огромную популярность в сети и привлекают внимание самой авторитетной международной Федерации ММА. Так сбывается мечта Гектора — ему выпадает возможность сойтись в бою с чемпионом мира, жестоким бойцом, последний противник которого находится в критическом состоянии в той же больнице, что и его собственный сын. У Гектора не остаётся выбора — он должен либо победить, либо умереть, поставив на кон всё, чтобы собрать деньги на операцию во имя спасения жизни своего сына...



Перевод: Профессиональный (многоголосый, закадровый) | телеканал МАТЧ!
Субтитры: нет
Качество: WEB-DLRip
Формат: AVI
Видео кодек: XviD
Аудио кодек: АС3
Видео: 720x400 (16:9), 23.976 fps, XviD build 65 ~1 661 kbps avg
Аудио №1: 48.0 kHz, AC3 Dolby Digital, 2/0 (L,R) ch, ~192 kbps | RUS / MVO
Аудио №2: 48.0 kHz, AC3 Dolby Digital, 3/2 (L,C,R,l,r) + LFE ch, ~384 kbps | ENG

Дата премьеры (мир): 13 сентября 2013

Релиз от: miha2154
General
Формат : AVI
Формат/Информация : Audio Video Interleave
Размер файла : 1,46 Гбайт
Продолжительность : 1 ч. 32 м.
Общий поток : 2251 Кбит/сек
Название фильма : Клетка славы
Программа кодирования : VirtualDubMod 1.5.10.2 (build 2540/release)
Библиотека кодирования : VirtualDubMod build 2540/release

Видео
Идентификатор : 0
Формат : MPEG-4 Visual
Профиль формата : Advanced Simple@L5
Параметр BVOP формата : 1
Параметр QPel формата : Нет
Параметр GMC формата : Без точки перехода
Параметр матрицы формата : Выборочная
Идентификатор кодека : XVID
Идентификатор кодека/Подсказка : XviD
Продолжительность : 1 ч. 32 м.
Битрейт : 1661 Кбит/сек
Ширина : 720 пикселей
Высота : 400 пикселей
Соотношение сторон : 16:9
Частота кадров : 23,976 (24000/1001) кадра/сек
Цветовое пространство : YUV
Субдискретизация насыщенности : 4:2:0
Битовая глубина : 8 бит
Тип развёртки : Прогрессивная
Метод сжатия : С потерями
Бит/(Пиксели*Кадры) : 0.241
Размер потока : 1,07 Гбайт (74%)
Библиотека кодирования : XviD 65

Аудио #1
Идентификатор : 1
Формат : AC-3
Формат/Информация : Audio Coding 3
Расширение режима : CM (complete main)
Параметр Endianness формата : Big
Идентификатор кодека : 2000
Продолжительность : 1 ч. 32 м.
Вид битрейта : Постоянный
Битрейт : 192 Кбит/сек
Каналы : 2 канала
Расположение каналов : Front: L R
Частота : 48,0 КГц
Частота кадров : 31,250 кадров/сек (1536 spf)
Метод сжатия : С потерями
Размер потока : 127 Мбайт (9%)
Выравнивание : Разделение по промежуткам
Продолжительность промежутка : 42 мс. (1,00 видеокадр)
Время предзагрузки промежутка : 500 мс.
Заголовок : Профессиональный (многоголосый закадровый) МАТЧ!

Аудио #2
Идентификатор : 2
Формат : AC-3
Формат/Информация : Audio Coding 3
Расширение режима : CM (complete main)
Параметр Endianness формата : Big
Идентификатор кодека : 2000
Продолжительность : 1 ч. 32 м.
Вид битрейта : Постоянный
Битрейт : 384 Кбит/сек
Каналы : 6 каналов
Расположение каналов : Front: L C R, Side: L R, LFE
Частота : 48,0 КГц
Частота кадров : 31,250 кадров/сек (1536 spf)
Метод сжатия : С потерями
Размер потока : 254 Мбайт (17%)
Выравнивание : Разделение по промежуткам
Продолжительность промежутка : 42 мс. (1,00 видеокадр)
Время предзагрузки промежутка : 500 мс.
Заголовок : Английский
Источник http://arutor.org

Внимание! AdBlock блокирует показ скриншотов, все вопросы к разработчикам )))
Трекер:  [ 07-Фев-2018 08:30 ]

  

Скачать .torrent

Размер .torrent файла 15 KB


Размер: 1.46 GB
Хэш (hash) релиза: 3e8c0372f04eae71f665fd37ef61c9465c96b6b8
Подписка на обновления:

Торренты, похожие на Клетка славы Клетка славы Чавеса скачать торрент

Форум Название Автор Размер S L Добавлен
Зарубежные фильмы до 2016 ·· Клетка славы / Клетка славы Чавеса / Chavez Cage of Glory (Эктор Эчаваррия / Hector Echavarria) [2013, США, драма, спорт, WEB-DL 720p] Galfimbul 33045276703.08 GB 0 0 1517981469

08:31

7-Фев-18

Зарубежные фильмы до 2016 ·· Клетка славы / Клетка славы Чавеса / Chavez Cage of Glory (Эктор Эчаваррия / Hector Echavarria) [2013, США, драма, спорт, HDTVRip] MVO Galfimbul 14703718401.37 GB 0 0 1502890209

16:30

16-Авг-17

Еще никто не оставлял запись к записи скачать торрент Клетка славы Клетка славы Чавеса . Будь первым!

!Обратная связь