Скачать через торрент Могучие рейнджеры Power Rangers Фильм бесплатно в хорошем качестве torrent

Скачивайте на UnionPeer.org фильмы через торрент без регистрации. Новинки кино в хорошем качестве через торрент. На UnionPeer.org можно скачать через торрент фильмы 2014 и 2015 годов. Самые новые фильмы.

Скачать торрент Могучие рейнджеры Power Rangers бесплатно через .torrent фильм мультфильм сериал

Статистика раздачи
Размер:  2.18 GB   |    Зарегистрирован:  6 лет 4 месяца   |    .torrent скачан:  130 раз   |   
Раздают:  1  
 

Скачать Могучие рейнджеры / Power Rangers (Дин Израэлайт / Dean Israelite) [2017, США, Фантастика, боевик, приключения, BDRip] Dub + Sub Rus, Eng + Original Eng через torrent

 
 
Автор Сообщение

Galfimbul

avatar Galfimbul


Могучие рейнджеры / Power Rangers

Год выхода: 2017
Выпущено: США, Гонконг, Япония, Мексика, Канада, Новая Зеландия
Жанр: фантастика, боевик, приключения
Продолжительность: 02:03:58Перевод: Профессиональный (дублированный)
Субтитры: русские (полные, форсированные), английские
Оригинальная аудиодорожка: английскийРежиссер:
Дин Израэлайт / Dean IsraeliteВ ролях:
Дакре Монтгомери, Наоми Скотт, АрДжей Сайлер, Луди Линь, Бекки Джи, Элизабет Бэнкс, Брайан Крэнстон, Билл Хэйдер, Мэтт Шайвли, Коуди КирслиО фильме:
Пять обычных старшеклассников узнают, что их маленький город Энджел Гроув и весь мир находятся на грани уничтожения инопланетной угрозой. Избранные судьбой наши герои быстро понимают, что они единственные, кто может спасти планету.Качество: BDRip | PWR_RNGRS_BLUEBIRD
Формат: AVI

Видео: 720x304 (2.37:1), 23.976 fps, XviD build 73 ~1745 kbps avg, 0.33 bit/pixel
Аудио: 48 kHz, AC3 Dolby Digital, 3/2 (L,C,R,l,r) + LFE ch, ~384 kbps avg | RUS
Аудио: 48 kHz, AC3 Dolby Digital, 3/2 (L,C,R,l,r) + LFE ch, ~384 kbps avg | ENGСкачать сэмпл
Format                      : AVI
Format/Info                 : Audio Video Interleave
Format profile              : OpenDML
File size                   : 2.18 GiB
Duration                    : 2 h 3 min
Overall bit rate            : 2 521 kb/s
Writing application         : VirtualDubMod 1.5.10.2 (build 2542/release)
Writing library             : VirtualDubMod build 2542/release

Video
ID                          : 0
Format                      : MPEG-4 Visual
Format profile              : Advanced Simple@L5
Format settings, BVOP       : 1
Format settings, QPel       : No
Format settings, GMC        : No warppoints
Format settings, Matrix     : Custom
Codec ID                    : XVID
Codec ID/Hint               : XviD
Duration                    : 2 h 3 min
Bit rate                    : 1 735 kb/s
Width                       : 720 pixels
Height                      : 304 pixels
Display aspect ratio        : 2.35:1
Frame rate                  : 23.976 (24000/1001) FPS
Color space                 : YUV
Chroma subsampling          : 4:2:0
Bit depth                   : 8 bits
Scan type                   : Progressive
Compression mode            : Lossy
Bits/(Pixel*Frame)          : 0.331
Stream size                 : 1.50 GiB (69%)
Writing library             : XviD 73

Audio #1
ID                          : 1
Format                      : AC-3
Format/Info                 : Audio Coding 3
Format settings, Endianness : Big
Codec ID                    : 2000
Duration                    : 2 h 3 min
Bit rate mode               : Constant
Bit rate                    : 384 kb/s
Channel(s)                  : 6 channels
Channel positions           : Front: L C R, Side: L R, LFE
Sampling rate               : 48.0 kHz
Frame rate                  : 31.250 FPS (1536 spf)
Bit depth                   : 16 bits
Compression mode            : Lossy
Stream size                 : 340 MiB (15%)
Alignment                   : Split accross interleaves
Interleave, duration        : 42  ms (1.00 video frame)
Interleave, preload duratio : 500  ms
Service kind                : Complete Main

Audio #2
ID                          : 2
Format                      : AC-3
Format/Info                 : Audio Coding 3
Format settings, Endianness : Big
Codec ID                    : 2000
Duration                    : 2 h 3 min
Bit rate mode               : Constant
Bit rate                    : 384 kb/s
Channel(s)                  : 6 channels
Channel positions           : Front: L C R, Side: L R, LFE
Sampling rate               : 48.0 kHz
Frame rate                  : 31.250 FPS (1536 spf)
Bit depth                   : 16 bits
Compression mode            : Lossy
Stream size                 : 341 MiB (15%)
Alignment                   : Split accross interleaves
Interleave, duration        : 42  ms (1.00 video frame)
Interleave, preload duratio : 500  ms
Service kind                : Complete Main


Внимание! AdBlock блокирует показ скриншотов, все вопросы к разработчикам )))
Трекер:  [ 30-Сен-2017 00:30 ]

  

Скачать .torrent

Размер .torrent файла 11 KB


Размер: 2.18 GB
Хэш (hash) релиза: 7cb1b892156fbcde8e8cb958dddc06ae4c78726f
Подписка на обновления:

Торренты, похожие на Могучие рейнджеры Power Rangers скачать торрент

Форум Название Автор Размер S L Добавлен
Зарубежные фильмы 2016-2019 (Новинки зарубежного кино) ·%· Могучие рейнджеры / Power Rangers (2017) BDRip 720p от k.e.n & MegaPeer | D, A Galfimbul 51112566514.76 GB 0 0 1589188848

12:20

11-Май-20

Зарубежные фильмы 2016-2019 (Новинки зарубежного кино) ·%· Могучие рейнджеры / Power Rangers (2017) WEBRip 1080p | D | Open Matte | Локализованная версия Galfimbul 53964991155.03 GB 0 0 1554354608

08:10

4-Апр-19

Зарубежные фильмы 2016-2019 (Новинки зарубежного кино) ·· Могучие рейнджеры / Power Rangers (Дин Израэлайт / Dean Israelite) [2017, США, Гонконг, Япония, Мексика, Канада, Новая Зеландия, фантастика, боевик, приключения, BDRip] AVO (Володарский) Galfimbul 22220492802.07 GB 0 0 1524065410

18:30

18-Апр-18

Зарубежные фильмы 2016-2019 (Новинки зарубежного кино) ·· Могучие рейнджеры / Power Rangers (Дин Израэлайт) [2017 г., фантастика, боевик, приключения, DVD5] Galfimbul 46988533764.38 GB 0 0 1512040227

14:10

30-Ноя-17

Зарубежные фильмы 2016-2019 (Новинки зарубежного кино) ·· Могучие рейнджеры / Power Rangers (Дин Израэлайт) [2017 г., фантастика, боевик, приключения, HDRip] DUB | Лицензия Galfimbul 15599185921.45 GB 0 0 1509018574

14:49

26-Окт-17

Зарубежные фильмы 2016-2019 (Новинки зарубежного кино) ·· Могучие рейнджеры / Power Rangers (Дин Израэлайт / Dean Israelite) [2017, США, Гонконг, Япония, фантастика, боевик, приключения, BDRip-AVC] Dub + Original (eng) + Sub (rus, eng) Galfimbul 30576790922.85 GB 0 0 1506718887

00:01

30-Сен-17

Зарубежные фильмы 2016-2019 (Новинки зарубежного кино) ·· Могучие рейнджеры / Power Rangers (Дин Израэлайт / Dean Israelite) [2017, США, Гонконг, Япония, Мексика, Канада, Новая Зеландия, фантастика, боевик, приключения, BDRip-AVC] Dub + Sub Rus Galfimbul 781838951746 MB 0 0 1506688218

15:30

29-Сен-17

Зарубежные фильмы 2016-2019 (Новинки зарубежного кино) ·· Могучие рейнджеры / Power Rangers (Дин Израэлайт) [2017 г., фантастика, боевик, приключения, BDRip 720p] DUB | iTunes Galfimbul 71684204406.68 GB 0 0 1506410713

10:25

26-Сен-17

Зарубежные фильмы 2016-2019 (Новинки зарубежного кино) ·· Могучие рейнджеры / Power Rangers (Дин Израэлайт) [2017 г., фантастика, боевик, приключения, HDRip] DUB | iTunes Galfimbul 22045552642.05 GB 0 0 1506410712

10:25

26-Сен-17

Зарубежные фильмы 2016-2019 (Новинки зарубежного кино) ·· Могучие рейнджеры / Power Rangers (Дин Израэлайт) [2017 г., фантастика, боевик, приключения, HDRip] DUB | iTunes Galfimbul 14696509441.37 GB 0 0 1506410710

10:25

26-Сен-17

Зарубежные фильмы 2016-2019 (Новинки зарубежного кино) ·· Могучие рейнджеры / Power Rangers (Дин Израэлайт / Dean Israelite) [2017, США, Фантастика, боевик, приключения, BDRip] Dub + Sub Galfimbul 15694650131.46 GB 0 0 1506400216

07:30

26-Сен-17

Зарубежные фильмы до 2016 ·· Могучие рейнджеры / Power Rangers (Дин Израэлайт / Dean Israelite) [2017, США, Гонконг, Япония, Мексика, Канада, Новая Зеландия, фантастика, боевик, приключения, BDRip 720] (Reivahist) + Sub Rus + Original Eng Galfimbul 58662900545.46 GB 0 0 1505454015

08:40

15-Сен-17

Зарубежные фильмы 2016-2019 (Новинки зарубежного кино) ·· Могучие рейнджеры / Power Rangers (Дин Израэлайт) [2017 г., фантастика, боевик, приключения, BDRip 720p] DUB | Чистый звук Galfimbul 56089375355.22 GB 0 0 1497954040

13:20

20-Июн-17

Зарубежные фильмы 2016-2019 (Новинки зарубежного кино) ·· Могучие рейнджеры / Power Rangers (Дин Израэлайт) [2017 г., фантастика, боевик, приключения, HDRip] DUB | Чистый звук Galfimbul 22042910722.05 GB 0 0 1497954038

13:20

20-Июн-17

Зарубежные фильмы 2016-2019 (Новинки зарубежного кино) ·· Могучие рейнджеры / Power Rangers (Дин Израэлайт) [2017 г., фантастика, боевик, приключения, HDRip] DUB | Чистый звук Galfimbul 14672650241.37 GB 0 0 1497954033

13:20

20-Июн-17

Зарубежные фильмы 2016-2019 (Новинки зарубежного кино) ·· Могучие рейнджеры / Power Rangers (Дин Израэлайт) [2017 г., фантастика, боевик, приключения, WEB-DLRip] Galfimbul 790038724753 MB 0 0 1497655225

02:20

17-Июн-17

Зарубежные фильмы 2016-2019 (Новинки зарубежного кино) ·· Могучие рейнджеры / Power Rangers (Дин Израэлайт) [2017 г., фантастика, боевик, приключения, WEB-DL 720p] MVO | MUZOBOZ Galfimbul 42701628843.98 GB 0 0 1497615949

15:25

16-Июн-17

Зарубежные фильмы 2016-2019 (Новинки зарубежного кино) ·· Могучие рейнджеры / Power Rangers (Дин Израэлайт) [2017 г., фантастика, боевик, приключения, WEB-DLRip] MVO | MUZOBOZ Galfimbul 22038753282.05 GB 0 0 1497615944

15:25

16-Июн-17

Зарубежные фильмы 2016-2019 (Новинки зарубежного кино) ·· Могучие рейнджеры / Power Rangers (Дин Израэлайт) [2017 г., фантастика, боевик, приключения, WEB-DLRip] MVO | MUZOBOZ Galfimbul 14724362241.37 GB 0 0 1497615937

15:25

16-Июн-17

Еще никто не оставлял запись к записи скачать торрент Могучие рейнджеры Power Rangers . Будь первым!

!Обратная связь