Скачать через торрент Хикок Hickok Фильм бесплатно в хорошем качестве torrent

Скачивайте на UnionPeer.org фильмы через торрент без регистрации. Новинки кино в хорошем качестве через торрент. На UnionPeer.org можно скачать через торрент фильмы 2014 и 2015 годов. Самые новые фильмы.

Скачать торрент Хикок Hickok бесплатно через .torrent фильм мультфильм сериал

Статистика раздачи
Размер:  1.45 GB   |    Зарегистрирован:  6 лет 4 месяца   |    .torrent скачан:  92 раза   |   
Раздают:  1  
 

Скачать Хикок / Hickok (Тимоти Вудворд мл. / Timothy Woodward Jr.) [2017, США, вестерн, WEB-DLRip] MVO через torrent

 
 
Автор Сообщение

Galfimbul

avatar Galfimbul


Хикок / Hickok

Страна: США
Жанр: вестерн
Год выпуска: 2017
Продолжительность: 01:28:20Перевод: Любительский (многоголосый закадровый) | "Paradox" & Omskbird records
Субтитры: нет
Оригинальная аудиодорожка: нетРежиссер:
Тимоти Вудворд мл. / Timothy Woodward Jr.В ролях:
Люк Хемсворт, Трэйси Д. Эдкинс, Крис Кристофферсон, Брюс Дерн, Кэмерон Ричардсон, Каиви Лайман, Хантер Фишер, Роберт Катрини, Бритен Саймонс, Кимберли АлександрОписание:
Очередное приключение Дикого Билла Хикока — американского героя Дикого Запада, легендарного стрелка и разведчика.Качество видео: WEB-DLRip | Hickok.2017.1080p.WEB-DL.
Формат видео: AVI

Видео: 720x304 (2.37:1), 23.976 fps, XviD build 73 ~2141 kbps avg, 0.41 bit/pixel
Аудио: 48 kHz, AC3 Dolby Digital, 2/0 (L,R) ch, ~192 kbpsСкачать сэмпл
Format                      : AVI
Format/Info                 : Audio Video Interleave
File size                   : 1.45 GiB
Duration                    : 1 h 28 min
Overall bit rate            : 2 343 kb/s
Writing application         : VirtualDubMod 1.5.10.3 | www.virtualdub-fr.org || (build 2550/release)
Writing library             : VirtualDubMod build 2550/release

Video
ID                          : 0
Format                      : MPEG-4 Visual
Format profile              : Advanced Simple@L5
Format settings             : BVOP1 / Custom Matrix
Format settings, BVOP       : 1
Format settings, QPel       : No
Format settings, GMC        : No warppoints
Format settings, Matrix     : Custom
Codec ID                    : XVID
Codec ID/Hint               : XviD
Duration                    : 1 h 28 min
Bit rate                    : 2 141 kb/s
Width                       : 720 pixels
Height                      : 304 pixels
Display aspect ratio        : 2.35:1
Frame rate                  : 23.976 (24000/1001) FPS
Color space                 : YUV
Chroma subsampling          : 4:2:0
Bit depth                   : 8 bits
Scan type                   : Progressive
Compression mode            : Lossy
Bits/(Pixel*Frame)          : 0.408
Stream size                 : 1.32 GiB (91%)
Writing library             : XviD 73

Audio
ID                          : 1
Format                      : AC-3
Format/Info                 : Audio Coding 3
Format settings, Endianness : Big
Codec ID                    : 2000
Duration                    : 1 h 28 min
Bit rate mode               : Constant
Bit rate                    : 192 kb/s
Channel(s)                  : 2 channels
Channel positions           : Front: L R
Sampling rate               : 48.0 kHz
Frame rate                  : 31.250 FPS (1536 SPF)
Bit depth                   : 16 bits
Compression mode            : Lossy
Stream size                 : 121 MiB (8%)
Alignment                   : Split accross interleaves
Interleave, duration        : 42  ms (1.00 video frame)
Interleave, preload duratio : 500  ms
Service kind                : Complete Main


Внимание! AdBlock блокирует показ скриншотов, все вопросы к разработчикам )))
Трекер:  [ 14-Окт-2017 13:01 ]

  

Скачать .torrent

Размер .torrent файла 15 KB


Размер: 1.45 GB
Хэш (hash) релиза: 58e36f79143df9588ad4a06b0cfb6d6a8b9d85bd
Подписка на обновления:

Торренты, похожие на Хикок Hickok скачать торрент

Форум Название Автор Размер S L Добавлен
Зарубежные фильмы 2016-2019 (Новинки зарубежного кино) ·· Хикок / Hickok (Тимоти Вудворд мл. / Timothy Woodward Jr.) [2017, США, вестерн, BDRip 1080p] Galfimbul 1143859222110.65 GB 0 0 1511256616

12:30

21-Ноя-17

Зарубежные фильмы 2016-2019 (Новинки зарубежного кино) ·· Хикок / Hickok (Тимоти Вудворд мл.) [2017 г., Вестерн, WEB-DLRip] MVO | "Paradox" & Omskbird records Galfimbul 14695546881.37 GB 0 0 1507798680

11:58

12-Окт-17

Зарубежные фильмы 2016-2019 (Новинки зарубежного кино) ·· Хикок / Hickok (Тимоти Вудворд мл.) [2017 г., Вестерн, WEB-DL 1080p] MVO | "Paradox" & Omskbird records Galfimbul 35719071413.33 GB 0 0 1507798678

11:57

12-Окт-17

Зарубежные фильмы 2016-2019 (Новинки зарубежного кино) ·· Хикок / Hickok (Тимоти Вудворд мл) [2017, вестерн, WEB-DLRip 1080р] Galfimbul 35719071413.33 GB 0 0 1507714218

12:30

11-Окт-17

Зарубежные фильмы 2016-2019 (Новинки зарубежного кино) ·· Хикок / Hickok (Тимоти Вудворд мл) [2017, вестерн, WEB-DLRip 720p] Galfimbul 28311313622.64 GB 0 0 1502422207

06:30

11-Авг-17

Зарубежные фильмы 2016-2019 (Новинки зарубежного кино) ·· Хикок / Hickok (Тимоти Вудворд мл) [2017, вестерн, WEB-DL 720p] Galfimbul 27491074152.56 GB 0 0 1499973614

22:20

13-Июл-17

Зарубежные фильмы 2016-2019 (Новинки зарубежного кино) ·· Хикок / Hickok (Тимоти Вудворд мл) [2017, вестерн, WEB-DL 1080p] Galfimbul 30758485202.86 GB 0 0 1499935210

11:40

13-Июл-17

Зарубежные фильмы 2016-2019 (Новинки зарубежного кино) ·· Хикок / Hickok (Тимоти Вудворд мл) [2017, вестерн, WEB-DLRip] Galfimbul 14662041601.37 GB 0 0 1499520035

16:20

8-Июл-17

Еще никто не оставлял запись к записи скачать торрент Хикок Hickok . Будь первым!

!Обратная связь