Скачать через торрент Беглецы Runaways Фильм бесплатно в хорошем качестве torrent

Скачивайте на UnionPeer.org фильмы через торрент без регистрации. Новинки кино в хорошем качестве через торрент. На UnionPeer.org можно скачать через торрент фильмы 2014 и 2015 годов. Самые новые фильмы.

Скачать торрент Беглецы Runaways бесплатно через .torrent фильм мультфильм сериал

Статистика раздачи
Размер:  1.95 GB   |    Зарегистрирован:  2 года 8 месяцев   |    .torrent скачан:  36 раз   |   
Раздают:  1  
   
Sprinthost
загрузка...
 
Автор Сообщение

Galfimbul ghost

avatar Galfimbul ghost


Беглецы | Runaways
Год выпуска: 2017
Страна: США
Жанр: Фантастика, боевик, драма
Продолжительность: ~ 00:52:00

Перевод: Профессиональный (многоголосый закадровый) | LostFilmРежиссёр: Роксанн Доусон, Нина Лопес-Коррадо, Бретт Морген

В ролях: Вирджиния Гарднер, Коуди Майо, Николь Вульф, Грегг Салкин, Кевин Уайзман, Райан Дум, Кармен Серано, Аллегра Акоста, Ариэла Барер, Бриджид Брэнно и др.Описание: Это история шести подростков - они случайно узнают, что их родители входят в состав группы суперзлодеев под названием "Прайд", которая руководит преступным миром Лос-Анджелеса. Также дети узнают, что каждый из них, как и их родители, обладает какими-то способностями (а кто-то и вовсе не является человеком). Подростки решают, что не готовы принять такую судьбу, и пытаются сбежать...

Релиз от

Работа со звуком: serial_M
Качество: HDTVRip
Формат: AVI
Видео: XVID, 720x400, 23.976 fps, ~2000 kbps avg, 0.29 bit/pixel
Аудио Rus: AC3 Dolby Digital, 48.0 KHz, 6 channels, ~384 kbps
Аудио Eng: AC3 Dolby Digital, 48.0 KHz, 6 channels, ~384 kbps
Субтитры: отсутствуют

Реклама отсутствует
General
Complete name : D:\Сериалы\Runaways.S01.HDTVRip.Rus.Eng.Casstudio\Runaways.S01E01.HDTVRip.Rus.Eng.Casstudio.avi
Format : AVI
Format/Info : Audio Video Interleave
File size : 1.01 GiB
Duration : 52 min 0 s
Overall bit rate : 2 784 kb/s
Writing application : VirtualDubMod 1.5.10.3 | www.virtualdub-fr.org || (build 2550/release)
Writing library : VirtualDubMod build 2550/release

Video
ID : 0
Format : MPEG-4 Visual
Format profile : Advanced Simple@L5
Format settings, BVOP : 2
Format settings, QPel : No
Format settings, GMC : No warppoints
Format settings, Matrix : Default (MPEG)
Codec ID : XVID
Codec ID/Hint : XviD
Duration : 52 min 0 s
Bit rate : 2 002 kb/s
Width : 720 pixels
Height : 400 pixels
Display aspect ratio : 16:9
Frame rate : 23.976 (24000/1001) FPS
Color space : YUV
Chroma subsampling : 4:2:0
Bit depth : 8 bits
Scan type : Progressive
Compression mode : Lossy
Bits/(Pixel*Frame) : 0.290
Stream size : 745 MiB (72%)
Writing library : XviD 1.2.1 (UTC 2008-12-04)

Audio #1
ID : 1
Format : AC-3
Format/Info : Audio Coding 3
Mode extension : CM (complete main)
Format settings, Endianness : Big
Codec ID : 2000
Duration : 52 min 0 s
Bit rate mode : Constant
Bit rate : 384 kb/s
Channel(s) : 6 channels
Channel positions : Front: L C R, Side: L R, LFE
Sampling rate : 48.0 kHz
Frame rate : 31.250 FPS (1536 spf)
Bit depth : 16 bits
Compression mode : Lossy
Stream size : 143 MiB (14%)
Alignment : Split accross interleaves
Interleave, duration : 42 ms (1.00 video frame)
Interleave, preload duratio : 500 ms

Audio #2
ID : 2
Format : AC-3
Format/Info : Audio Coding 3
Mode extension : CM (complete main)
Format settings, Endianness : Big
Codec ID : 2000
Duration : 52 min 0 s
Bit rate mode : Constant
Bit rate : 384 kb/s
Channel(s) : 6 channels
Channel positions : Front: L C R, Side: L R, LFE
Sampling rate : 48.0 kHz
Frame rate : 31.250 FPS (1536 spf)
Bit depth : 16 bits
Compression mode : Lossy
Stream size : 143 MiB (14%)
Alignment : Split accross interleaves
Interleave, duration : 42 ms (1.00 video frame)
Interleave, preload duratio : 500 ms
Внимание! Раздача ведётся путём добавления новых серий; при каждом добавлении создаётся новый торрент.
Чтобы начать докачку новой серии, пользователям необходимо сделать следующее:
1. Остановить скачивание.
2. Удалить старый торрент у себя из клиента (старые серии удалять не надо).
3. Скачать новый торрент и запустить его у себя в клиенте вместо старого, при этом указать клиенту путь в старую папку куда и должно происходить скачивание новых серий.
Ваш клиент при этом должен произвести хеширование (проверку) старой папки (если не производит сам - помогите ему сделать это), и будет докачивать только те серии которых у вас ещё нет. Старые серии при этом не удаляются, а продолжают раздаваться!
Eсли вы уже удалили старые серии, то предотвратить повторную закачку старых серий можно, отжав галочку в соответсвующих местах при запуске нового торрента.
Предыдущие и альтернативные раздачи


Внимание! AdBlock блокирует показ скриншотов, все вопросы к разработчикам )))
Трекер:  [ 28-Ноя-2017 02:48 ]

  

Скачать .torrent

Размер .torrent файла 20 KB


Размер: 1.95 GB
Хэш (hash) релиза: 8c2fa8d4aceb24262eaf0c3e69c248a0150aa025
Подписка на обновления:
dpd RU

Еще никто не оставлял запись к записи скачать торрент Беглецы Runaways . Будь первым!

!Обратная связь