Скачать через торрент Непостижимое Inconceivable Фильм бесплатно в хорошем качестве torrent

Скачивайте на UnionPeer.org фильмы через торрент без регистрации. Новинки кино в хорошем качестве через торрент. На UnionPeer.org можно скачать через торрент фильмы 2014 и 2015 годов. Самые новые фильмы.

Скачать торрент Непостижимое Inconceivable бесплатно через .torrent фильм мультфильм сериал

Статистика раздачи
Размер:  1.46 GB   |    Зарегистрирован:  6 лет 2 месяца   |    .torrent скачан:  120 раз   |   
Раздают:  1  
 

Скачать Непостижимое / Inconceivable (Джонатан Бэйкер / Jonathan Baker) [2017, Канада, триллер, драма, HDRip] MVO + Original Eng через torrent

 
 
Автор Сообщение

Galfimbul

avatar Galfimbul


Непостижимое / Inconceivable

Страна: Канада
Жанр: триллер, драма
Год выпуска: 2017
Продолжительность: 01:46:10

Перевод: Любительский (многоголосый закадровый) @MUZOBOZ@
Субтитры: нет
Оригинальная аудиодорожка: английский

Режиссер: Джонатан Бэйкер / Jonathan Baker

В ролях: Николас Кейдж, Джина Гершон, Фэй Данауэй, Никки Уилан, Натали Эва Мари, Джеймс Ван Паттен, Тайлер Джон Олсон, Leah Huebner, Джонатан Бэйкер, Эли БардхаОписание: Загадочная молодая девушка Кэти вместе со своей дочерью переезжает в новый город, чтобы сбежать от прошлого. Там она быстро находит общий язык с женщиной по имени Анджела Морган, которая живёт с мужем Брайаном и дочерью. Анджела приглашает новую подругу пожить в их гостевом домике и поработать у них в качестве няни. Вскоре Морганы замечают, что Кэти как-то слишком привязана к их дочери.Качество видео: HDRip
Формат видео: AVI

Видео: XviD, 720x304 (2,36:1), 23,976 fps, ~1600 kbps
Аудио 1: AC3 Dolby Digital, 48 kHz, 2 ch, 192 kbps (Rus)
Аудио 2: AC3 Dolby Digital, 48 kHz, 2 ch, 192 kbps (Eng)

За аудиодорожку большое спасибо Selena_a
ОбщееПолное имя : Inconceivable.2017.aviФормат : AVIФормат/Информация : Audio Video InterleaveРазмер файла : 1,46 ГбайтПродолжительность : 1 ч. 46 м.Общий поток : 1974 Кбит/секПрограмма кодирования : VirtualDubMod 1.5.10.2 (build 2542/release)Библиотека кодирования : VirtualDubMod build 2542/release

ВидеоИдентификатор : 0Формат : MPEG-4 VisualПрофиль формата : Advanced Simple@L5Параметр BVOP формата : 2Параметр QPel формата : НетПараметр GMC формата : Без точки переходаПараметр матрицы формата : ВыборочнаяИдентификатор кодека : XVIDИдентификатор кодека/Подсказка : XviDПродолжительность : 1 ч. 46 м.Битрейт : 1576 Кбит/секШирина : 720 пикселейВысота : 304 пикселяСоотношение сторон : 2,35:1Частота кадров : 23,976 кадра/секЦветовое пространство : YUVСубдискретизация насыщенности : 4:2:0Битовая глубина : 8 битТип развёртки : ПрогрессивнаяМетод сжатия : С потерямиБит/(Пиксели*Кадры) : 0.300Размер потока : 1,17 Гбайт (80%)Библиотека кодирования : XviD 65

Аудио #1Идентификатор : 1Формат : AC-3Формат/Информация : Audio Coding 3Расширение режима : CM (complete main)Параметр Endianness формата : BigИдентификатор кодека : 2000Продолжительность : 1 ч. 46 м.Вид битрейта : ПостоянныйБитрейт : 192 Кбит/секКаналы : 2 каналаРасположение каналов : Front: L RЧастота : 48,0 КГцБитовая глубина : 16 битМетод сжатия : С потерямиРазмер потока : 146 Мбайт (10%)Выравнивание : Разделение по промежуткамПродолжительность промежутка : 42 мс. (1,00 видеокадр)Время предзагрузки промежутка : 500 мс.

Аудио #2Идентификатор : 2Формат : AC-3Формат/Информация : Audio Coding 3Расширение режима : CM (complete main)Параметр Endianness формата : BigИдентификатор кодека : 2000Продолжительность : 1 ч. 46 м.Вид битрейта : ПостоянныйБитрейт : 192 Кбит/секКаналы : 2 каналаРасположение каналов : Front: L RЧастота : 48,0 КГцБитовая глубина : 16 битМетод сжатия : С потерямиРазмер потока : 146 Мбайт (10%)Выравнивание : Разделение по промежуткамПродолжительность промежутка : 42 мс. (1,00 видеокадр)Время предзагрузки промежутка : 500 мс.


Внимание! AdBlock блокирует показ скриншотов, все вопросы к разработчикам )))
Трекер:  [ 05-Дек-2017 06:30 ]

  

Скачать .torrent

Размер .torrent файла 15 KB


Размер: 1.46 GB
Хэш (hash) релиза: c10c174a8bb34147b7d5bcd5216f0054921828da
Подписка на обновления:

Торренты, похожие на Непостижимое Inconceivable скачать торрент

Форум Название Автор Размер S L Добавлен
Зарубежные фильмы 2016-2019 (Новинки зарубежного кино) ·· Непостижимое / Inconceivable (Джонатан Бэйкер) [2017, триллер, драма, HDRip] GreenРай Studio Galfimbul 15622553601.45 GB 0 0 1518814832

00:00

17-Фев-18

Зарубежные фильмы 2016-2019 (Новинки зарубежного кино) ·· Непостижимое / Inconceivable (Джонатан Бэйкер) [2017, триллер, драма, HDRip 720p] GreenРай Studio Galfimbul 35779501903.33 GB 0 0 1518780017

14:20

16-Фев-18

Зарубежные фильмы 2016-2019 (Новинки зарубежного кино) ·· Непостижимое / Inconceivable (Джонатан Бэйкер / Jonathan Baker) [2017, Канада, триллер, драма, BDRip-AVC] MVO Galfimbul 15642363911.46 GB 0 0 1512678615

23:30

7-Дек-17

Зарубежные фильмы 2016-2019 (Новинки зарубежного кино) ·· Непостижимое / Inconceivable (Джонатан Бэйкер) [2017, триллер, драма, WEB-DL 1080p] Galfimbul 43057492884.01 GB 0 0 1499008272

18:11

2-Июл-17

Зарубежные фильмы 2016-2019 (Новинки зарубежного кино) ·· Непостижимое / Inconceivable (Джонатан Бэйкер) [2017, триллер, драма, WEB-DL 720p] Galfimbul 36352704763.39 GB 0 0 1499008260

18:11

2-Июл-17

Зарубежные фильмы 2016-2019 (Новинки зарубежного кино) ·· Непостижимое / Inconceivable (Джонатан Бэйкер) [2017, триллер, драма, WEB-DLRip] Galfimbul 14675251201.37 GB 0 0 1499004025

17:00

2-Июл-17

Еще никто не оставлял запись к записи скачать торрент Непостижимое Inconceivable . Будь первым!

!Обратная связь