Скачать через торрент Непостижимое Inconceivable Фильм бесплатно в хорошем качестве torrent

Скачивайте на UnionPeer.org фильмы через торрент без регистрации. Новинки кино в хорошем качестве через торрент. На UnionPeer.org можно скачать через торрент фильмы 2014 и 2015 годов. Самые новые фильмы.

Скачать торрент Непостижимое Inconceivable бесплатно через .torrent фильм мультфильм сериал

Статистика раздачи
Размер:  1.46 GB   |    Зарегистрирован:  6 лет 2 месяца   |    .torrent скачан:  133 раза   |   
Раздают:  1  
 

Скачать Непостижимое / Inconceivable (Джонатан Бэйкер / Jonathan Baker) [2017, Канада, триллер, драма, BDRip-AVC] MVO через torrent

 
 
Автор Сообщение

Galfimbul

avatar Galfimbul


Непостижимое / Inconceivable«Deception Hits Home»
Страна: Канада
Жанр: триллер, драма
Год выпуска: 2017
Продолжительность: 01:46:10Перевод: Любительский (многоголосый закадровый) @MUZOBOZ@
Субтитры: нет
Оригинальная аудиодорожка: нетРежиссер: Джонатан Бэйкер / Jonathan BakerВ ролях: Николас Кейдж, Джина Гершон, Фэй Данауэй, Никки Уилан, Натали Эва Мари, Джеймс Ван Паттен, Тайлер Джон Олсон, Leah Huebner, Джонатан Бэйкер, Эли БардхаОписание: Загадочная молодая девушка Кэти вместе со своей дочерью переезжает в новый город, чтобы сбежать от прошлого. Там она быстро находит общий язык с женщиной по имени Анджела Морган, которая живёт с мужем Брайаном и дочерью. Анджела приглашает новую подругу пожить в их гостевом домике и поработать у них в качестве няни. Вскоре Морганы замечают, что Кэти как-то слишком привязана к их дочери. Качество видео: BDRip-AVC / Inconceivable.2017.REMUX.BluRay.1080p.AVC.DTS-HD.MA5.1-iFT
Формат видео: MKVВидео: MPEG-4 AVC, 1046x438 (2.40:1), 23.976 fps, ~1770 kbps avg, 0.161 bit/pixel
Аудио: 48 kHz, AC3 Dolby Digital, 2/0 (L,R) ch, ~192 kbps avg
Complete name : D:\Раздачи\Непостижимое (2017) BDRip-AVC_ivanes20031987.mkvFormat : MatroskaFormat version : Version 2File size : 1.46 GiBDuration : 1 h 46 minOverall bit rate : 1 964 kb/sEncoded date : UTC 2017-12-05 18:43:53Writing application : mkvmerge v4.4.0 ('Die Wiederkehr') сборка от Jan 3 2011 21:40:45Writing library : libebml v1.0.0 + libmatroska v1.0.0Cover : YesAttachments : cover.png

VideoID : 1Format : AVCFormat/Info : Advanced Video CodecFormat profile : [email protected] settings, CABAC : YesFormat settings, RefFrames : 14 framesCodec ID : V_MPEG4/ISO/AVCDuration : 1 h 46 minBit rate : 1 770 kb/sWidth : 1 046 pixelsHeight : 438 pixelsDisplay aspect ratio : 2.40:1Frame rate mode : ConstantFrame rate : 23.976 (24000/1001) FPSColor space : YUVChroma subsampling : 4:2:0Bit depth : 8 bitsScan type : ProgressiveBits/(Pixel*Frame) : 0.161Stream size : 1.29 GiB (88%)Writing library : x264 core 152 r2851kMod ba24899Encoding settings : cabac=1 / ref=14 / deblock=1:-1:-1 / analyse=0x3:0x113 / me=umh / subme=10 / psy=1 / fade_compensate=0.00 / psy_rd=1.00:0.00 / mixed_ref=1 / me_range=32 / chroma_me=1 / trellis=2 / 8x8dct=1 / cqm=0 / deadzone=21,11 / fast_pskip=0 / chroma_qp_offset=-2 / threads=14 / lookahead_threads=3 / sliced_threads=0 / nr=0 / decimate=0 / interlaced=0 / bluray_compat=0 / constrained_intra=0 / bframes=14 / b_pyramid=2 / b_adapt=2 / b_bias=0 / direct=1 / weightb=1 / open_gop=0 / weightp=2 / keyint=240 / keyint_min=23 / scenecut=40 / intra_refresh=0 / rc_lookahead=60 / rc=2pass / mbtree=0 / bitrate=1770 / ratetol=1.0 / qcomp=0.60 / qpmin=0 / qpmax=69 / qpstep=4 / cplxblur=20.0 / qblur=0.5 / vbv_maxrate=50000 / vbv_bufsize=62500 / nal_hrd=none / filler=0 / ip_ratio=1.40 / pb_ratio=1.30 / aq=1:1.00Default : YesForced : No

AudioID : 2Format : AC-3Format/Info : Audio Coding 3Format settings, Endianness : BigCodec ID : A_AC3Duration : 1 h 46 minBit rate mode : ConstantBit rate : 192 kb/sChannel(s) : 2 channelsChannel positions : Front: L RSampling rate : 48.0 kHzFrame rate : 31.250 FPS (1536 SPF)Bit depth : 16 bitsCompression mode : LossyStream size : 146 MiB (10%)Title : @MUZOBOZ@Language : RussianService kind : Complete MainDefault : YesForced : No


Внимание! AdBlock блокирует показ скриншотов, все вопросы к разработчикам )))
Трекер:  [ 07-Дек-2017 23:30 ]

  

Скачать .torrent

Размер .torrent файла 15 KB


Размер: 1.46 GB
Хэш (hash) релиза: 71e3a76ed830b55a2f48d89f235557b2e6448061
Подписка на обновления:

Торренты, похожие на Непостижимое Inconceivable скачать торрент

Форум Название Автор Размер S L Добавлен
Зарубежные фильмы 2016-2019 (Новинки зарубежного кино) ·· Непостижимое / Inconceivable (Джонатан Бэйкер) [2017, триллер, драма, HDRip] GreenРай Studio Galfimbul 15622553601.45 GB 0 0 1518814832

00:00

17-Фев-18

Зарубежные фильмы 2016-2019 (Новинки зарубежного кино) ·· Непостижимое / Inconceivable (Джонатан Бэйкер) [2017, триллер, драма, HDRip 720p] GreenРай Studio Galfimbul 35779501903.33 GB 0 0 1518780017

14:20

16-Фев-18

Зарубежные фильмы 2016-2019 (Новинки зарубежного кино) ·· Непостижимое / Inconceivable (Джонатан Бэйкер / Jonathan Baker) [2017, Канада, триллер, драма, HDRip] MVO + Original Eng Galfimbul 15721512961.46 GB 0 0 1512444613

06:30

5-Дек-17

Зарубежные фильмы 2016-2019 (Новинки зарубежного кино) ·· Непостижимое / Inconceivable (Джонатан Бэйкер) [2017, триллер, драма, WEB-DL 1080p] Galfimbul 43057492884.01 GB 0 0 1499008272

18:11

2-Июл-17

Зарубежные фильмы 2016-2019 (Новинки зарубежного кино) ·· Непостижимое / Inconceivable (Джонатан Бэйкер) [2017, триллер, драма, WEB-DL 720p] Galfimbul 36352704763.39 GB 0 0 1499008260

18:11

2-Июл-17

Зарубежные фильмы 2016-2019 (Новинки зарубежного кино) ·· Непостижимое / Inconceivable (Джонатан Бэйкер) [2017, триллер, драма, WEB-DLRip] Galfimbul 14675251201.37 GB 0 0 1499004025

17:00

2-Июл-17

Еще никто не оставлял запись к записи скачать торрент Непостижимое Inconceivable . Будь первым!

!Обратная связь