Скачать через торрент [VIDEO] Первому игроку приготовиться Ready Player One бесплатно русская версия torrent активатор

Статистика раздачи
Размер:  3.31 GB   |    Зарегистрирован:  4 месяца 19 дней   |    .torrent скачан:  40 раз   |   
Раздают:  1  
   
загрузка...
 
Автор Сообщение

Galfimbul

avatar Galfimbul


Первому игроку приготовиться / Ready Player One


Год выпуска: 2018
Страна: США
Жанр: фантастика, боевик, приключения
Продолжительность: 02:19:58
Перевод №1: русский Профессиональный (полное дублирование) Blu-Ray EUR
Перевод №2: украинский Профессиональный (полное дублирование) студия Postmodern
Оригинальная дорожка: Есть
Субтитры: русские (форсированные), (полные), украинские (форсированные), английские (полные, SDH)
Режиссер: Стивен Спилберг / Steven Spielberg
В ролях: Тай Шеридан, Оливия Кук, Бен Мендельсон, Лина Уэйте, ТиДжей Миллер, Саймон Пегг, Марк Райлэнс, Филип Чжао, Уин Морисаки, Ханна Джон-Кэймен и другие .
Описание: Действие фильма происходит в 2045 году, мир погружается в хаос и находится на грани коллапса. Люди ищут спасения в игре OASIS - огромной вселенной виртуальной реальности. Ее создатель, гениальный и эксцентричный Джеймс Холлидэй, оставляет уникальное завещание. Все его колоссальное состояние получит игрок, первым обнаруживший цифровое «пасхальное яйцо», которое миллиардер спрятал где-то на просторах OASISа. Запущенный им квест охватывает весь мир. Совершенно негероический парень по имени Уэйд Уоттс решает принять участие в состязании, с головой бросаясь в головокружительную, искажающую реальность погоню за сокровищами по фантастической вселенной, полной загадок, открытий и опасностей .
Релиз группы

Качество: BDRip / рип с Blu-ray disc 1080p [EUR]
Формат: MP4
Видео кодек: H.264
Аудио кодек: AAC
Видео: 1280x536 AR:2.39 3000 kbps 23.976 fps
Аудио №1: [Russian] 2ch 48 kHz 128 kbps - [Dub] Профессиональный (полное дублирование) Blu-Ray EUR
Аудио №2: [Ukrainian] 2ch 48 kHz 128 kbps - [Dub] Профессиональный (полное дублирование) студия Postmodern
Аудио №3: [English] 2ch 48 kHz 128 kbps - Original
avs [info]: 1280x536p 1:1 @ 24000/1001 fps (cfr)
x264 [info]: using SAR=1/1
x264 [info]: using cpu capabilities: MMX2 SSE2Fast SSSE3 SSE4.2 AVX FMA3 BMI2 AVX2
x264 [info]: profile High, level 4.1

x264 [info]: frame I:1185 Avg QP:17.66 size: 80021
x264 [info]: frame P:58827 Avg QP:21.79 size: 28027
x264 [info]: frame B:141345 Avg QP:23.23 size: 9936
x264 [info]: consecutive B-frames: 5.8% 10.6% 14.7% 23.7% 16.9% 23.0% 2.5% 0.4% 0.8% 1.6%
x264 [info]: mb I I16..4: 8.2% 72.6% 19.2%
x264 [info]: mb P I16..4: 1.8% 11.9% 2.1% P16..4: 33.5% 34.8% 8.0% 0.0% 0.0% skip: 7.9%
x264 [info]: mb B I16..4: 0.2% 1.5% 0.2% B16..8: 38.2% 18.9% 2.7% direct: 4.9% skip:33.4% L0:44.3% L1:45.9% BI: 9.8%
x264 [info]: 8x8 transform intra:75.7% inter:65.8%
x264 [info]: direct mvs spatial:96.5% temporal:3.5%
x264 [info]: coded y,uvDC,uvAC intra: 82.6% 79.6% 45.7% inter: 25.6% 23.9% 7.2%
x264 [info]: i16 v,h,dc,p: 7% 12% 2% 79%
x264 [info]: i8 v,h,dc,ddl,ddr,vr,hd,vl,hu: 7% 6% 3% 11% 17% 14% 17% 11% 14%
x264 [info]: i4 v,h,dc,ddl,ddr,vr,hd,vl,hu: 9% 7% 3% 9% 16% 14% 16% 11% 14%
x264 [info]: i8c dc,h,v,p: 32% 27% 18% 23%
x264 [info]: Weighted P-Frames: Y:22.8% UV:16.3%
x264 [info]: ref P L0: 48.7% 11.7% 17.0% 6.2% 5.2% 3.8% 3.0% 1.8% 1.8% 0.6% 0.1%
x264 [info]: ref B L0: 80.3% 8.8% 4.3% 2.3% 1.8% 1.4% 0.8% 0.3%
x264 [info]: ref B L1: 96.6% 3.4%
x264 [info]: kb/s:2998.66

encoded 201357 frames, 9.30 fps, 2998.66 kb/s
GeneralComplete name : K:\Torrents\Ready Player One.2018.BDRip.x264.1280x.rip by Frost O.S.mp4Format : MPEG-4Format profile : 3GPP Release 6 GeneralCodec ID : 3gg6 (isom/3gg6/mp42)File size : 3.31 GiBDuration : 2 h 19 minOverall bit rate mode : VariableOverall bit rate : 3 390 kb/sEncoded date : UTC 2018-07-24 12:57:53Tagged date : UTC 2018-07-24 12:57:53Writing application : Yamb 2.1.0.0

VideoID : 1Format : AVCFormat/Info : Advanced Video CodecFormat profile : High@L4.1Format settings : CABAC / 9 Ref FramesFormat settings, CABAC : YesFormat settings, RefFrames : 9 framesCodec ID : avc1Codec ID/Info : Advanced Video CodingDuration : 2 h 19 minBit rate : 3 000 kb/sMaximum bit rate : 18.6 Mb/sWidth : 1 280 pixelsHeight : 536 pixelsDisplay aspect ratio : 2.40:1Frame rate mode : ConstantFrame rate : 23.976 (24000/1001) FPSColor space : YUVChroma subsampling : 4:2:0Bit depth : 8 bitsScan type : ProgressiveBits/(Pixel*Frame) : 0.182Stream size : 2.93 GiB (88%)Writing library : x264 core 152 r2851 ba24899Encoding settings : cabac=1 / ref=9 / deblock=1:-2:-1 / analyse=0x3:0x113 / me=umh / subme=11 / psy=1 / psy_rd=1.00:0.00 / mixed_ref=1 / me_range=32 / chroma_me=1 / trellis=2 / 8x8dct=1 / cqm=0 / deadzone=21,11 / fast_pskip=0 / chroma_qp_offset=-2 / threads=6 / lookahead_threads=1 / sliced_threads=0 / nr=0 / decimate=0 / interlaced=0 / bluray_compat=0 / constrained_intra=0 / bframes=9 / b_pyramid=2 / b_adapt=2 / b_bias=0 / direct=3 / weightb=1 / open_gop=0 / weightp=2 / keyint=250 / keyint_min=23 / scenecut=40 / intra_refresh=0 / rc=2pass / mbtree=0 / bitrate=3000 / ratetol=1.0 / qcomp=0.70 / qpmin=0 / qpmax=69 / qpstep=4 / cplxblur=20.0 / qblur=0.5 / ip_ratio=1.40 / pb_ratio=1.30 / aq=3:0.80Encoded date : UTC 2018-07-23 15:11:27Tagged date : UTC 2018-07-24 12:59:03Color range : LimitedColor primaries : BT.709Transfer characteristics : BT.709Matrix coefficients : BT.709

Audio #1ID : 2Format : AACFormat/Info : Advanced Audio CodecFormat profile : LCCodec ID : mp4a-40-2Duration : 2 h 19 minBit rate mode : VariableBit rate : 128 kb/sMaximum bit rate : 137 kb/sChannel(s) : 2 channelsChannel positions : Front: L RSampling rate : 48.0 kHzFrame rate : 46.875 FPS (1024 SPF)Compression mode : LossyStream size : 128 MiB (4%)Title : Russian / Dub, Blu-Ray EUREncoded date : UTC 2018-07-24 12:46:48Tagged date : UTC 2018-07-24 12:59:03

Audio #2ID : 3Format : AACFormat/Info : Advanced Audio CodecFormat profile : LCCodec ID : mp4a-40-2Duration : 2 h 19 minBit rate mode : VariableBit rate : 128 kb/sMaximum bit rate : 136 kb/sChannel(s) : 2 channelsChannel positions : Front: L RSampling rate : 48.0 kHzFrame rate : 46.875 FPS (1024 SPF)Compression mode : LossyStream size : 128 MiB (4%)Title : Ukrainian / Dub, PostmodernEncoded date : UTC 2018-07-24 12:51:00Tagged date : UTC 2018-07-24 12:59:03

Audio #3ID : 4Format : AACFormat/Info : Advanced Audio CodecFormat profile : LCCodec ID : mp4a-40-2Duration : 2 h 19 minBit rate mode : VariableBit rate : 128 kb/sMaximum bit rate : 136 kb/sChannel(s) : 2 channelsChannel positions : Front: L RSampling rate : 48.0 kHzFrame rate : 46.875 FPS (1024 SPF)Compression mode : LossyStream size : 128 MiB (4%)Title : English / OriginalEncoded date : UTC 2018-07-24 12:42:21Tagged date : UTC 2018-07-24 12:59:03

Text #1ID : 5Format : Timed TextCodec ID : tx3gDuration : 1 h 53 minBit rate mode : VariableBit rate : 1 b/sStream size : 1.15 KiB (0%)Title : Russian / ForcedForced : NoEncoded date : UTC 2018-07-24 12:59:03Tagged date : UTC 2018-07-24 12:59:03

Text #2ID : 6Format : Timed TextCodec ID : tx3gDuration : 2 h 11 minBit rate mode : VariableBit rate : 97 b/sStream size : 93.3 KiB (0%)Title : Russian / FullForced : NoEncoded date : UTC 2018-07-24 12:59:03Tagged date : UTC 2018-07-24 12:59:03

Text #3ID : 7Format : Timed TextCodec ID : tx3gDuration : 2 h 19 minBit rate mode : VariableBit rate : 3 b/sStream size : 3.17 KiB (0%)Title : Ukrainian / ForcedForced : NoEncoded date : UTC 2018-07-24 12:59:03Tagged date : UTC 2018-07-24 12:59:03

Text #4ID : 8Format : Timed TextCodec ID : tx3gDuration : 2 h 9 minBit rate mode : VariableBit rate : 69 b/sStream size : 65.1 KiB (0%)Title : English / FullForced : NoEncoded date : UTC 2018-07-24 12:59:03Tagged date : UTC 2018-07-24 12:59:03

Text #5ID : 9Format : Timed TextCodec ID : tx3gDuration : 2 h 9 minBit rate mode : VariableBit rate : 66 b/sStream size : 62.6 KiB (0%)Title : English / SDHForced : NoEncoded date : UTC 2018-07-24 12:59:03Tagged date : UTC 2018-07-24 12:59:03


Трекер:  [ 24-Июл-2018 16:36 ]

  

Скачать .torrent

Размер .torrent файла 17 KB


Размер: 3.31 GB
Хэш (hash) релиза: 515cb63b38b59dd8a348876f7e69cb7b6928ca9d

Еще никто не оставлял запись к записи скачать торрент [VIDEO] Первому игроку приготовиться Ready Player One . Будь первым!

!Обратная связь