Скачать через торрент [VIDEO] Закусочная на колесах Wheels on Meals бесплатно русская версия torrent активатор

Статистика раздачи
Размер:  2.11 GB   |    Зарегистрирован:  4 месяца 18 дней   |    .torrent скачан:  17 раз   |   
Раздают:  1  
   
загрузка...
 
Автор Сообщение

Galfimbul

avatar Galfimbul


Закусочная на колесах / Wheels on Meals / Kuai can che

Год выпуска: 1984
Страна: Гонконг, Испания
Жанр: боевик, драма, криминал
Продолжительность: 01:48:32
Перевод №1: русский Профессиональный (многоголосый, закадровый) UniDigital
Перевод №2: русский Профессиональный (многоголосый, закадровый) 5 канал, Петербург
Перевод №3: русский Профессиональный (двухголосый, закадровый) со вставками UniDigital
Перевод №4: русский Авторский (одноголосый, закадровый) Юрий Живов
Перевод №5: русский Авторский (одноголосый, закадровый) Михаил Иванов
Перевод №6: русский Авторский (одноголосый, закадровый) Сергей Визгунов
Перевод №7: русский Авторский (одноголосый, закадровый) Леонид Володарский
Оригинальная дорожка: Есть (Китайская)
Субтитры: русские (полные), (полные "Мишин"), английские (полные)
Режиссер: Саммо Хунг / Sammo Hung
В ролях: Джеки Чан, Саммо Хунг, Юэнь Бяо, Лола Форнер, Бенни Уркидез, Кит Витали, Херб Эдельман, Сюзанна Сэнтис, Мерседес Альберт и другие .
Описание: Два энергичных китайца организовали в Барселоне передвижную харчевню. Их желтый фургончик дарит людям вкусную еду и очаровательный китайско — испанский сервис. Но однажды всю их выручку похищает хитрая Синьорита Сильвия.
Масса самых забавных ситуаций, сумасшедшие гонки на автокухне, виртуозные сцены рукопашных поединков и, как всегда, полный задора и отточенности в движениях Джеки Чан!

Релиз группы

Качество: HDRip / рип с BDRip 1080p
Формат: MP4
Видео кодек: H.264
Аудио кодек: AAC
Видео: 960x518 AR:1.85 1740 kbps 23.976 fps
Аудио №1: [Russian] 2ch 48 kHz 128 kbps - [MVO] Профессиональный (многоголосый, закадровый) UniDigital
Аудио №2: [Russian] 2ch 48 kHz 128 kbps - [MVO] Профессиональный (многоголосый, закадровый) 5 канал, Петербург
Аудио №3: [Russian] 2ch 48 kHz 128 kbps - [DVO] Профессиональный (двухголосый, закадровый) со вставками UniDigital
Аудио №4: [Russian] 2ch 48 kHz 128 kbps - [VO] Авторский (одноголосый, закадровый) Юрий Живов
Аудио №5: [Russian] 2ch 48 kHz 128 kbps - [VO] Авторский (одноголосый, закадровый) Михаил Иванов
Аудио №6: [Russian] 2ch 48 kHz 128 kbps - [VO] Авторский (одноголосый, закадровый) Сергей Визгунов
Аудио №7: [Russian] 2ch 48 kHz 128 kbps - [VO] Авторский (одноголосый, закадровый) Леонид Володарский
Аудио №8: [Chinese] 2ch 48 kHz 128 kbps - Original (Китайский)
avs [info]: 960x518p 1:1 @ 24000/1001 fps (cfr)
x264 [info]: using SAR=1/1
x264 [info]: using cpu capabilities: MMX2 SSE2Fast SSSE3 SSE4.2 AVX FMA3 BMI2 AVX2
x264 [info]: profile High, level 4.1

x264 [info]: frame I:1480 Avg QP:18.58 size: 54432
x264 [info]: frame P:39121 Avg QP:22.02 size: 17700
x264 [info]: frame B:115548 Avg QP:24.17 size: 5569
x264 [info]: consecutive B-frames: 4.0% 4.5% 12.0% 25.1% 14.8% 37.3% 1.9% 0.2% 0.2%
x264 [info]: mb I I16..4: 1.6% 86.1% 12.3%
x264 [info]: mb P I16..4: 0.7% 11.3% 1.8% P16..4: 35.6% 38.4% 10.1% 0.0% 0.0% skip: 2.1%
x264 [info]: mb B I16..4: 0.1% 1.3% 0.2% B16..8: 34.2% 20.2% 3.0% direct: 3.9% skip:37.2% L0:40.5% L1:46.0% BI:13.5%
x264 [info]: 8x8 transform intra:82.9% inter:64.6%
x264 [info]: direct mvs spatial:99.5% temporal:0.5%
x264 [info]: coded y,uvDC,uvAC intra: 92.1% 76.4% 34.3% inter: 21.8% 14.6% 2.6%
x264 [info]: i16 v,h,dc,p: 28% 29% 1% 43%
x264 [info]: i8 v,h,dc,ddl,ddr,vr,hd,vl,hu: 10% 7% 3% 10% 15% 15% 14% 13% 12%
x264 [info]: i4 v,h,dc,ddl,ddr,vr,hd,vl,hu: 14% 9% 2% 8% 16% 17% 14% 11% 10%
x264 [info]: i8c dc,h,v,p: 32% 26% 22% 20%
x264 [info]: Weighted P-Frames: Y:11.3% UV:5.2%
x264 [info]: ref P L0: 51.7% 13.3% 17.2% 5.0% 4.4% 3.0% 3.1% 1.9% 0.3% 0.0%
x264 [info]: ref B L0: 88.0% 6.7% 2.4% 1.2% 0.8% 0.6% 0.3%
x264 [info]: ref B L1: 97.7% 2.3%
x264 [info]: kb/s:1740.00

encoded 156149 frames, 15.39 fps, 1740.00 kb/s
GeneralComplete name : K:\Torrents\Wheels on Meals.1984.HDRip.x264.960x.rip by Frost O.S.mp4Format : MPEG-4Format profile : 3GPP Release 6 GeneralCodec ID : 3gg6 (isom/3gg6/mp42)File size : 2.11 GiBDuration : 1 h 48 minOverall bit rate mode : VariableOverall bit rate : 2 779 kb/sEncoded date : UTC 2018-07-25 12:53:09Tagged date : UTC 2018-07-25 12:53:09

VideoID : 1Format : AVCFormat/Info : Advanced Video CodecFormat profile : High@L4.1Format settings : CABAC / 8 Ref FramesFormat settings, CABAC : YesFormat settings, RefFrames : 8 framesCodec ID : avc1Codec ID/Info : Advanced Video CodingDuration : 1 h 48 minBit rate : 1 740 kb/sMaximum bit rate : 4 207 kb/sWidth : 960 pixelsHeight : 518 pixelsDisplay aspect ratio : 1.85:1Frame rate mode : ConstantFrame rate : 23.976 (24000/1001) FPSColor space : YUVChroma subsampling : 4:2:0Bit depth : 8 bitsScan type : ProgressiveBits/(Pixel*Frame) : 0.146Stream size : 1.32 GiB (63%)Writing library : x264 core 152 r2851 ba24899Encoding settings : cabac=1 / ref=8 / deblock=1:-2:-1 / analyse=0x3:0x113 / me=umh / subme=11 / psy=1 / psy_rd=1.05:0.00 / mixed_ref=1 / me_range=32 / chroma_me=1 / trellis=2 / 8x8dct=1 / cqm=0 / deadzone=21,11 / fast_pskip=0 / chroma_qp_offset=-2 / threads=6 / lookahead_threads=1 / sliced_threads=0 / nr=0 / decimate=0 / interlaced=0 / bluray_compat=0 / constrained_intra=0 / bframes=8 / b_pyramid=2 / b_adapt=2 / b_bias=0 / direct=3 / weightb=1 / open_gop=0 / weightp=2 / keyint=250 / keyint_min=23 / scenecut=40 / intra_refresh=0 / rc=2pass / mbtree=0 / bitrate=1740 / ratetol=1.0 / qcomp=0.70 / qpmin=0 / qpmax=69 / qpstep=4 / cplxblur=20.0 / qblur=0.5 / ip_ratio=1.40 / pb_ratio=1.30 / aq=1:0.70Encoded date : UTC 2018-07-25 08:51:47Tagged date : UTC 2018-07-25 12:53:46Color range : LimitedColor primaries : BT.709Transfer characteristics : BT.709Matrix coefficients : BT.709

Audio #1ID : 2Format : AACFormat/Info : Advanced Audio CodecFormat profile : LCCodec ID : mp4a-40-2Duration : 1 h 48 minBit rate mode : VariableBit rate : 128 kb/sMaximum bit rate : 133 kb/sChannel(s) : 2 channelsChannel positions : Front: L RSampling rate : 48.0 kHzFrame rate : 46.875 FPS (1024 SPF)Compression mode : LossyStream size : 99.3 MiB (5%)Title : Russian / MVO, UniDigitalEncoded date : UTC 2018-07-25 12:05:29Tagged date : UTC 2018-07-25 12:53:46

Audio #2ID : 3Format : AACFormat/Info : Advanced Audio CodecFormat profile : LCCodec ID : mp4a-40-2Duration : 1 h 48 minBit rate mode : VariableBit rate : 128 kb/sMaximum bit rate : 134 kb/sChannel(s) : 2 channelsChannel positions : Front: L RSampling rate : 48.0 kHzFrame rate : 46.875 FPS (1024 SPF)Compression mode : LossyStream size : 99.3 MiB (5%)Title : Russian / MVO, 5_kanal_PetrburgEncoded date : UTC 2018-07-25 12:12:00Tagged date : UTC 2018-07-25 12:53:46

Audio #3ID : 4Format : AACFormat/Info : Advanced Audio CodecFormat profile : LCCodec ID : mp4a-40-2Duration : 1 h 48 minBit rate mode : VariableBit rate : 128 kb/sMaximum bit rate : 133 kb/sChannel(s) : 2 channelsChannel positions : Front: L RSampling rate : 48.0 kHzFrame rate : 46.875 FPS (1024 SPF)Compression mode : LossyStream size : 99.2 MiB (5%)Title : Russian / DVO, so_vstavkami_UniDigitalEncoded date : UTC 2018-07-25 12:14:56Tagged date : UTC 2018-07-25 12:53:46

Audio #4ID : 5Format : AACFormat/Info : Advanced Audio CodecFormat profile : LCCodec ID : mp4a-40-2Duration : 1 h 48 minBit rate mode : VariableBit rate : 128 kb/sMaximum bit rate : 133 kb/sChannel(s) : 2 channelsChannel positions : Front: L RSampling rate : 48.0 kHzFrame rate : 46.875 FPS (1024 SPF)Compression mode : LossyStream size : 99.3 MiB (5%)Title : Russian / VO, ZhuvovEncoded date : UTC 2018-07-25 12:20:50Tagged date : UTC 2018-07-25 12:53:46

Audio #5ID : 6Format : AACFormat/Info : Advanced Audio CodecFormat profile : LCCodec ID : mp4a-40-2Duration : 1 h 48 minBit rate mode : VariableBit rate : 128 kb/sMaximum bit rate : 134 kb/sChannel(s) : 2 channelsChannel positions : Front: L RSampling rate : 48.0 kHzFrame rate : 46.875 FPS (1024 SPF)Compression mode : LossyStream size : 99.3 MiB (5%)Title : Russian / VO, IvanovEncoded date : UTC 2018-07-25 12:23:32Tagged date : UTC 2018-07-25 12:53:46

Audio #6ID : 7Format : AACFormat/Info : Advanced Audio CodecFormat profile : LCCodec ID : mp4a-40-2Duration : 1 h 48 minBit rate mode : VariableBit rate : 128 kb/sMaximum bit rate : 131 kb/sChannel(s) : 2 channelsChannel positions : Front: L RSampling rate : 48.0 kHzFrame rate : 46.875 FPS (1024 SPF)Compression mode : LossyStream size : 99.3 MiB (5%)Title : Russian / VO, VizgunovEncoded date : UTC 2018-07-25 12:29:45Tagged date : UTC 2018-07-25 12:53:46

Audio #7ID : 8Format : AACFormat/Info : Advanced Audio CodecFormat profile : LCCodec ID : mp4a-40-2Duration : 1 h 48 minBit rate mode : VariableBit rate : 128 kb/sMaximum bit rate : 131 kb/sChannel(s) : 2 channelsChannel positions : Front: L RSampling rate : 48.0 kHzFrame rate : 46.875 FPS (1024 SPF)Compression mode : LossyStream size : 99.3 MiB (5%)Title : Russian / VO, VolodarskiyEncoded date : UTC 2018-07-25 12:32:22Tagged date : UTC 2018-07-25 12:53:46

Audio #8ID : 9Format : AACFormat/Info : Advanced Audio CodecFormat profile : LCCodec ID : mp4a-40-2Duration : 1 h 48 minBit rate mode : VariableBit rate : 128 kb/sMaximum bit rate : 134 kb/sChannel(s) : 2 channelsChannel positions : Front: L RSampling rate : 48.0 kHzFrame rate : 46.875 FPS (1024 SPF)Compression mode : LossyStream size : 99.2 MiB (5%)Title : Chinese / OriginalEncoded date : UTC 2018-07-25 12:39:30Tagged date : UTC 2018-07-25 12:53:46

Text #1ID : 10Format : Timed TextCodec ID : tx3gDuration : 1 h 46 minBit rate mode : VariableBit rate : 86 b/sStream size : 67.3 KiB (0%)Title : Russian / FullForced : NoEncoded date : UTC 2018-07-25 12:53:46Tagged date : UTC 2018-07-25 12:53:46

Text #2ID : 11Format : Timed TextCodec ID : tx3gDuration : 1 h 47 minBit rate mode : VariableBit rate : 104 b/sStream size : 81.6 KiB (0%)Title : Russian / Full_MishunForced : NoEncoded date : UTC 2018-07-25 12:53:46Tagged date : UTC 2018-07-25 12:53:46

Text #3ID : 12Format : Timed TextCodec ID : tx3gDuration : 1 h 46 minBit rate mode : VariableBit rate : 46 b/sStream size : 36.0 KiB (0%)Title : English / FullForced : NoEncoded date : UTC 2018-07-25 12:53:46Tagged date : UTC 2018-07-25 12:53:46


Трекер:  [ 25-Июл-2018 16:36 ]

  

Скачать .torrent

Размер .torrent файла 11 KB


Размер: 2.11 GB
Хэш (hash) релиза: c9e95a50968639a84d9d59db1f71e1ff39d8b631

Еще никто не оставлял запись к записи скачать торрент [VIDEO] Закусочная на колесах Wheels on Meals . Будь первым!

!Обратная связь