Скачать через торрент [VIDEO] Тихоокеанский рубеж: Дилогия Pacific Rim: Dilogy бесплатно русская версия torrent активатор

Статистика раздачи
Размер:  3.94 GB   |    Зарегистрирован:  2 месяца 19 дней   |    .torrent скачан:  18 раз   |   
Раздают:  1  
   
загрузка...
 
Автор Сообщение

Galfimbul

avatar Galfimbul


Тихоокеанский рубеж: Дилогия / Pacific Rim: Dilogy
Тихоокеанский рубеж / Pacific Rim


Год выпуска: 2013
Страна: США
Жанр: фантастика, боевик, приключения
Продолжительность: 02:11:17
Перевод №1: русский Профессиональный (полное дублирование) Blu-Ray CEE
Перевод №2: украинский Профессиональный (полное дублирование) Blu-Ray CEE
Перевод №3: русский Авторский (одноголосый, закадровый) Ю.Сербин
Перевод №4: русский Авторский (одноголосый, закадровый) Л.Володарский
Оригинальная дорожка: Есть
Субтитры: русские (форсированные iTunes), (полные iTunes), украинские (форсированные iTunes), (полные iTunes), английские (полные), (SDH), (SDH Colored)
Режиссер: Гильермо дель Торо / Guillermo del Toro
В ролях: Чарли Ханнэм, Рон Перлман, Идрис Эльба, Диего Клаттенхофф, Чарли Дэй, Берн Горман, Клифтон Коллинз мл., Ринко Кикучи, Роберт Мэйллет, Макс Мартини и другие .
Описание: Когда из морских глубин поднялись легионы чудовищ, известных как Кайдзу, началась война, которой суждено было забрать миллионы жизней и свести «человеческие ресурсы» почти к нулю всего за несколько лет. Чтобы сражаться с пришельцами, было создано специальное оружие: огромные роботы, названные Джегерами, они управлялись одновременно двумя пилотами, чьи сознания соединены с помощью нейронной связи. Но даже Джегеры оказываются почти бессильны перед лицом безжалостных Кайдзу. На грани поражения у защитников человечества нет выбора, кроме как обратиться к двум весьма сомнительным героям — никому не нужному бывшему пилоту и неопытному стажеру — которые объединились, чтобы повести в бой некогда легендарного, но сейчас устаревшего Джегера. Вместе они оказываются единственной надеждой человечества, последним препятствием перед надвигающимся апокалипсисом .
Релиз группы

Качество: BDRip / рип с Blu-ray disc 1080p [CEE]
Формат: MP4
Видео кодек: H.264
Аудио кодек: AAC
Видео: 960x540 AR:1.78 1740 kbps 23.976 fps
Аудио №1: [Russian] 2ch 48 kHz 128 kbps - [Dub] Профессиональный (полное дублирование) Blu-Ray CEE
Аудио №2: [Ukrainian] 2ch 48 kHz 128 kbps - [Dub] Профессиональный (полное дублирование) Blu-Ray CEE
Аудио №3: [Russian] 2ch 48 kHz 128 kbps - [VO] Авторский (одноголосый, закадровый) Ю.Сербин
Аудио №4: [Russian] 2ch 48 kHz 128 kbps - [VO] Авторский (одноголосый, закадровый) Л.Володарский
Аудио №5: [English] 2ch 48 kHz 128 kbps - Original
<div class="sp-wrap">
<div class="sp-head folded">Logx264</div>
<div class="sp-body">avs [info]: 960x540p 1:1 @ 24000/1001 fps (cfr)
x264 [info]: using SAR=1/1
x264 [info]: using cpu capabilities: MMX2 SSE2Fast SSSE3 SSE4.2 AVX FMA3 BMI2 AVX2
x264 [info]: profile High, level 4.1

x264 [info]: frame I:1605 Avg QP:19.36 size: 47832
x264 [info]: frame P:54808 Avg QP:24.36 size: 15564
x264 [info]: frame B:132444 Avg QP:25.87 size: 5878
x264 [info]: consecutive B-frames: 5.8% 6.2% 16.3% 37.8% 15.4% 15.1% 1.9% 0.7% 0.7%
x264 [info]: mb I I16..4: 10.9% 67.8% 21.4%
x264 [info]: mb P I16..4: 3.3% 17.4% 2.2% P16..4: 39.4% 18.1% 8.7% 0.0% 0.0% skip:10.8%
x264 [info]: mb B I16..4: 0.4% 2.0% 0.2% B16..8: 38.5% 10.2% 2.4% direct: 5.6% skip:40.7% L0:44.0% L1:45.8% BI:10.3%
x264 [info]: 8x8 transform intra:75.2% inter:68.0%
x264 [info]: direct mvs spatial:94.3% temporal:5.7%
x264 [info]: coded y,uvDC,uvAC intra: 66.9% 67.7% 34.9% inter: 19.7% 18.4% 6.2%
x264 [info]: i16 v,h,dc,p: 32% 19% 10% 39%
x264 [info]: i8 v,h,dc,ddl,ddr,vr,hd,vl,hu: 9% 8% 10% 9% 13% 13% 14% 11% 13%
x264 [info]: i4 v,h,dc,ddl,ddr,vr,hd,vl,hu: 11% 9% 7% 9% 14% 13% 14% 10% 13%
x264 [info]: i8c dc,h,v,p: 41% 25% 18% 16%
x264 [info]: Weighted P-Frames: Y:18.7% UV:13.9%
x264 [info]: ref P L0: 54.8% 12.8% 14.0% 5.6% 3.8% 2.9% 2.4% 1.7% 1.5% 0.4% 0.1%
x264 [info]: ref B L0: 79.7% 9.2% 4.4% 2.4% 2.0% 1.2% 0.8% 0.4%
x264 [info]: ref B L1: 96.0% 4.0%
x264 [info]: kb/s:1734.97

encoded 188857 frames, 17.63 fps, 1734.97 kb/s
GeneralComplete name : K:\Torrents\Pacific Rim Dilogy.2013-2018.BDRip.x264.960x\Pacific Rim.2013.BDRip.x264.960x.rip by Frost O.S.mp4Format : MPEG-4Format profile : 3GPP Release 6 GeneralCodec ID : 3gg6 (isom/3gg6/mp42)File size : 2.19 GiBDuration : 2 h 11 minOverall bit rate mode : VariableOverall bit rate : 2 386 kb/sEncoded date : UTC 2018-07-28 15:19:22Tagged date : UTC 2018-07-28 15:19:22

VideoID : 1Format : AVCFormat/Info : Advanced Video CodecFormat profile : High@L4.1Format settings : CABAC / 9 Ref FramesFormat settings, CABAC : YesFormat settings, RefFrames : 9 framesCodec ID : avc1Codec ID/Info : Advanced Video CodingDuration : 2 h 11 minBit rate : 1 740 kb/sMaximum bit rate : 5 748 kb/sWidth : 960 pixelsHeight : 540 pixelsDisplay aspect ratio : 16:9Frame rate mode : ConstantFrame rate : 23.976 (24000/1001) FPSColor space : YUVChroma subsampling : 4:2:0Bit depth : 8 bitsScan type : ProgressiveBits/(Pixel*Frame) : 0.140Stream size : 1.59 GiB (73%)Writing library : x264 core 152 r2851 ba24899Encoding settings : cabac=1 / ref=9 / deblock=1:-2:-1 / analyse=0x3:0x113 / me=umh / subme=10 / psy=1 / psy_rd=0.95:0.00 / mixed_ref=1 / me_range=32 / chroma_me=1 / trellis=2 / 8x8dct=1 / cqm=0 / deadzone=21,11 / fast_pskip=0 / chroma_qp_offset=-2 / threads=6 / lookahead_threads=1 / sliced_threads=0 / nr=0 / decimate=0 / interlaced=0 / bluray_compat=0 / constrained_intra=0 / bframes=8 / b_pyramid=2 / b_adapt=2 / b_bias=0 / direct=3 / weightb=1 / open_gop=0 / weightp=2 / keyint=250 / keyint_min=23 / scenecut=40 / intra_refresh=0 / rc=2pass / mbtree=0 / bitrate=1740 / ratetol=1.0 / qcomp=0.60 / qpmin=0 / qpmax=69 / qpstep=4 / cplxblur=20.0 / qblur=0.5 / ip_ratio=1.40 / pb_ratio=1.30 / aq=3:0.90 / zones=179900,188701,q=30Encoded date : UTC 2018-07-26 19:58:59Tagged date : UTC 2018-07-28 15:20:04Color range : LimitedColor primaries : BT.709Transfer characteristics : BT.709Matrix coefficients : BT.709

Audio #1ID : 2Format : AACFormat/Info : Advanced Audio CodecFormat profile : LCCodec ID : mp4a-40-2Duration : 2 h 11 minBit rate mode : VariableBit rate : 128 kb/sMaximum bit rate : 138 kb/sChannel(s) : 2 channelsChannel positions : Front: L RSampling rate : 48.0 kHzFrame rate : 46.875 FPS (1024 SPF)Compression mode : LossyStream size : 120 MiB (5%)Title : Russian / Dub, Blu-Ray CEEEncoded date : UTC 2018-07-28 14:08:34Tagged date : UTC 2018-07-28 15:20:04

Audio #2ID : 3Format : AACFormat/Info : Advanced Audio CodecFormat profile : LCCodec ID : mp4a-40-2Duration : 2 h 11 minBit rate mode : VariableBit rate : 128 kb/sMaximum bit rate : 138 kb/sChannel(s) : 2 channelsChannel positions : Front: L RSampling rate : 48.0 kHzFrame rate : 46.875 FPS (1024 SPF)Compression mode : LossyStream size : 120 MiB (5%)Title : Ukrainian / Dub, Blu-Ray CEEEncoded date : UTC 2018-07-28 14:13:04Tagged date : UTC 2018-07-28 15:20:04

Audio #3ID : 4Format : AACFormat/Info : Advanced Audio CodecFormat profile : LCCodec ID : mp4a-40-2Duration : 2 h 11 minBit rate mode : VariableBit rate : 128 kb/sMaximum bit rate : 136 kb/sChannel(s) : 2 channelsChannel positions : Front: L RSampling rate : 48.0 kHzFrame rate : 46.875 FPS (1024 SPF)Compression mode : LossyStream size : 120 MiB (5%)Title : Russian / VO, SerbinEncoded date : UTC 2018-07-28 14:51:27Tagged date : UTC 2018-07-28 15:20:04

Audio #4ID : 5Format : AACFormat/Info : Advanced Audio CodecFormat profile : LCCodec ID : mp4a-40-2Duration : 2 h 11 minBit rate mode : VariableBit rate : 128 kb/sMaximum bit rate : 138 kb/sChannel(s) : 2 channelsChannel positions : Front: L RSampling rate : 48.0 kHzFrame rate : 46.875 FPS (1024 SPF)Compression mode : LossyStream size : 120 MiB (5%)Title : Russian / VO, VolodarskiyEncoded date : UTC 2018-07-28 14:29:23Tagged date : UTC 2018-07-28 15:20:04

Audio #5ID : 6Format : AACFormat/Info : Advanced Audio CodecFormat profile : LCCodec ID : mp4a-40-2Duration : 2 h 11 minBit rate mode : VariableBit rate : 128 kb/sMaximum bit rate : 137 kb/sChannel(s) : 2 channelsChannel positions : Front: L RSampling rate : 48.0 kHzFrame rate : 46.875 FPS (1024 SPF)Compression mode : LossyStream size : 120 MiB (5%)Title : English / OriginalEncoded date : UTC 2018-07-28 14:03:58Tagged date : UTC 2018-07-28 15:20:04

Text #1ID : 7Format : Timed TextCodec ID : tx3gDuration : 2 h 11 minBit rate mode : VariableBit rate : 2 b/sStream size : 2.16 KiB (0%)Title : Russian / Forced iTunesForced : NoEncoded date : UTC 2018-07-28 15:20:04Tagged date : UTC 2018-07-28 15:20:04

Text #2ID : 8Format : Timed TextCodec ID : tx3gDuration : 2 h 11 minBit rate mode : VariableBit rate : 74 b/sStream size : 71.0 KiB (0%)Title : Russian / iTunesForced : NoEncoded date : UTC 2018-07-28 15:20:04Tagged date : UTC 2018-07-28 15:20:04

Text #3ID : 9Format : Timed TextCodec ID : tx3gDuration : 2 h 11 minBit rate mode : VariableBit rate : 3 b/sStream size : 2.62 KiB (0%)Title : Ukrainian / Forced iTunesForced : NoEncoded date : UTC 2018-07-28 15:20:04Tagged date : UTC 2018-07-28 15:20:04

Text #4ID : 10Format : Timed TextCodec ID : tx3gDuration : 2 h 11 minBit rate mode : VariableBit rate : 93 b/sStream size : 89.7 KiB (0%)Title : Ukrainian / iTunesForced : NoEncoded date : UTC 2018-07-28 15:20:04Tagged date : UTC 2018-07-28 15:20:04

Text #5ID : 11Format : Timed TextCodec ID : tx3gDuration : 2 h 5 minBit rate mode : VariableBit rate : 68 b/sStream size : 62.5 KiB (0%)Title : English / FullForced : NoEncoded date : UTC 2018-07-28 15:20:04Tagged date : UTC 2018-07-28 15:20:04

Text #6ID : 12Format : Timed TextCodec ID : tx3gDuration : 2 h 11 minBit rate mode : VariableBit rate : 72 b/sStream size : 68.9 KiB (0%)Title : English / SDHForced : NoEncoded date : UTC 2018-07-28 15:20:04Tagged date : UTC 2018-07-28 15:20:04

Text #7ID : 13Format : Timed TextCodec ID : tx3gDuration : 2 h 11 minBit rate mode : VariableBit rate : 81 b/sStream size : 78.3 KiB (0%)Title : English / SDH ColoredForced : NoEncoded date : UTC 2018-07-28 15:20:04Tagged date : UTC 2018-07-28 15:20:04
</div>
</div>
Тихоокеанский рубеж 2 / Pacific Rim: Uprising


Год выпуска: 2018
Страна: США, Китай, Великобритания
Жанр: фантастика, боевик, приключения
Продолжительность: 01:50:42
Перевод №1: русский Профессиональный (полное дублирование) Blu-Ray EUR
Перевод №2: украинский Профессиональный (полное дублирование) студия LeDoyen
Перевод №3: русский Любительский (многоголосый, закадровый) HDrezka Studio
Оригинальная дорожка: Есть
Субтитры: русские (форсированные), (iTunes), украинские (форсированные), английские (полные), (SDH)
Режиссер: Стивен С. ДеНайт / Steven S. DeKnight
В ролях: Джон Бойега, Скотт Иствуд, Кэйли Спэни, Берн Горман, Чарли Дэй, Тянь Цзин, Макс Чжан, Адриа Архона, Ринко Кикучи, Каран Брэр, Уэсли Вон, Иванна Сахно, Макэню Арата, Лили Цзи, Ширли Родригес и другие .
Описание: Команда пилотируемых роботов-защитников остановила вторжение гигантских инопланетных монстров. Великая битва за Тихоокеанский рубеж ознаменовала новую главу в истории человечества. Однако война только начинается…
Пришло время нового поколения отстаивать своё право на Землю .

Релиз группы

Качество: BDRip / рип с Blu-ray disc 1080p [EUR]
Формат: MP4
Видео кодек: H.264
Аудио кодек: AAC
Видео: 960x400 AR:2.40 1740 kbps 23.976 fps
Аудио №1: [Russian] 2ch 48 kHz 128 kbps - [Dub] Профессиональный (полное дублирование) Blu-Ray EUR
Аудио №2: [Ukrainian] 2ch 48 kHz 128 kbps - [Dub] Профессиональный (полное дублирование) студия LeDoyen
Аудио №3: [Russian] 2ch 48 kHz 128 kbps - [MVO] Любительский (многоголосый, закадровый) HDrezka Studio
Аудио №4: [English] 2ch 48 kHz 128 kbps - Original
<div class="sp-wrap">
<div class="sp-head folded">Logx264</div>
<div class="sp-body">avs [info]: 960x400p 1:1 @ 24000/1001 fps (cfr)
x264 [info]: using SAR=1/1
x264 [info]: using cpu capabilities: MMX2 SSE2Fast SSSE3 SSE4.2 AVX FMA3 BMI2 AVX2
x264 [info]: profile High, level 4.1

x264 [info]: frame I:1634 Avg QP:18.79 size: 56590
x264 [info]: frame P:44638 Avg QP:22.90 size: 16195
x264 [info]: frame B:112981 Avg QP:24.47 size: 5561
x264 [info]: consecutive B-frames: 5.5% 6.6% 18.7% 26.2% 15.4% 21.8% 3.2% 1.1% 1.4%
x264 [info]: mb I I16..4: 8.4% 69.4% 22.2%
x264 [info]: mb P I16..4: 1.4% 13.5% 2.5% P16..4: 34.7% 33.0% 8.7% 0.0% 0.0% skip: 6.3%
x264 [info]: mb B I16..4: 0.2% 2.0% 0.3% B16..8: 35.9% 17.5% 2.7% direct: 4.7% skip:36.8% L0:42.2% L1:45.3% BI:12.5%
x264 [info]: 8x8 transform intra:77.0% inter:68.2%
x264 [info]: direct mvs spatial:93.3% temporal:6.7%
x264 [info]: coded y,uvDC,uvAC intra: 84.9% 86.0% 64.1% inter: 20.7% 25.2% 13.7%
x264 [info]: i16 v,h,dc,p: 10% 14% 6% 70%
x264 [info]: i8 v,h,dc,ddl,ddr,vr,hd,vl,hu: 7% 7% 4% 10% 16% 15% 16% 13% 14%
x264 [info]: i4 v,h,dc,ddl,ddr,vr,hd,vl,hu: 9% 8% 3% 9% 16% 14% 15% 11% 15%
x264 [info]: i8c dc,h,v,p: 39% 21% 17% 23%
x264 [info]: Weighted P-Frames: Y:18.6% UV:13.7%
x264 [info]: ref P L0: 55.1% 12.3% 16.6% 5.1% 3.9% 2.7% 2.4% 1.5% 0.4% 0.1%
x264 [info]: ref B L0: 80.8% 10.2% 4.3% 2.1% 1.4% 0.9% 0.3%
x264 [info]: ref B L1: 96.2% 3.8%
x264 [info]: kb/s:1738.73

encoded 159253 frames, 14.78 fps, 1738.73 kb/s
GeneralComplete name : K:\Torrents\Pacific Rim Dilogy.2013-2018.BDRip.x264.960x\Pacific Rim Uprising.2018.BDRip.x264.960x.rip by Frost O.S.mp4Format : MPEG-4Format profile : 3GPP Release 6 GeneralCodec ID : 3gg6 (isom/3gg6/mp42)File size : 1.75 GiBDuration : 1 h 50 minOverall bit rate mode : VariableOverall bit rate : 2 260 kb/sEncoded date : UTC 2018-07-28 15:34:33Tagged date : UTC 2018-07-28 15:34:33

VideoID : 1Format : AVCFormat/Info : Advanced Video CodecFormat profile : High@L4.1Format settings : CABAC / 8 Ref FramesFormat settings, CABAC : YesFormat settings, RefFrames : 8 framesCodec ID : avc1Codec ID/Info : Advanced Video CodingDuration : 1 h 50 minBit rate : 1 740 kb/sMaximum bit rate : 6 053 kb/sWidth : 960 pixelsHeight : 400 pixelsDisplay aspect ratio : 2.40:1Frame rate mode : ConstantFrame rate : 23.976 (24000/1001) FPSColor space : YUVChroma subsampling : 4:2:0Bit depth : 8 bitsScan type : ProgressiveBits/(Pixel*Frame) : 0.189Stream size : 1.34 GiB (77%)Writing library : x264 core 152 r2851 ba24899Encoding settings : cabac=1 / ref=8 / deblock=1:-2:-1 / analyse=0x3:0x113 / me=umh / subme=11 / psy=1 / psy_rd=0.95:0.15 / mixed_ref=1 / me_range=48 / chroma_me=1 / trellis=2 / 8x8dct=1 / cqm=0 / deadzone=21,11 / fast_pskip=0 / chroma_qp_offset=-3 / threads=6 / lookahead_threads=1 / sliced_threads=0 / nr=0 / decimate=0 / interlaced=0 / bluray_compat=0 / constrained_intra=0 / bframes=8 / b_pyramid=2 / b_adapt=2 / b_bias=0 / direct=3 / weightb=1 / open_gop=0 / weightp=2 / keyint=250 / keyint_min=23 / scenecut=40 / intra_refresh=0 / rc=2pass / mbtree=0 / bitrate=1740 / ratetol=1.0 / qcomp=0.70 / qpmin=0 / qpmax=69 / qpstep=4 / cplxblur=20.0 / qblur=0.5 / ip_ratio=1.40 / pb_ratio=1.30 / aq=2:0.90Encoded date : UTC 2018-07-27 18:21:42Tagged date : UTC 2018-07-28 15:35:00Color range : LimitedColor primaries : BT.709Transfer characteristics : BT.709Matrix coefficients : BT.709

Audio #1ID : 2Format : AACFormat/Info : Advanced Audio CodecFormat profile : LCCodec ID : mp4a-40-2Duration : 1 h 50 minBit rate mode : VariableBit rate : 128 kb/sMaximum bit rate : 136 kb/sChannel(s) : 2 channelsChannel positions : Front: L RSampling rate : 48.0 kHzFrame rate : 46.875 FPS (1024 SPF)Compression mode : LossyStream size : 101 MiB (6%)Title : Russian / Dub, Blu-Ray EUREncoded date : UTC 2018-07-28 14:37:29Tagged date : UTC 2018-07-28 15:35:00

Audio #2ID : 3Format : AACFormat/Info : Advanced Audio CodecFormat profile : LCCodec ID : mp4a-40-2Duration : 1 h 50 minBit rate mode : VariableBit rate : 128 kb/sMaximum bit rate : 136 kb/sChannel(s) : 2 channelsChannel positions : Front: L RSampling rate : 48.0 kHzFrame rate : 46.875 FPS (1024 SPF)Compression mode : LossyStream size : 101 MiB (6%)Title : Ukrainian / Dub, LeDoyenEncoded date : UTC 2018-07-28 14:40:57Tagged date : UTC 2018-07-28 15:35:00

Audio #3ID : 4Format : AACFormat/Info : Advanced Audio CodecFormat profile : LCCodec ID : mp4a-40-2Duration : 1 h 50 minBit rate mode : VariableBit rate : 128 kb/sMaximum bit rate : 134 kb/sChannel(s) : 2 channelsChannel positions : Front: L RSampling rate : 48.0 kHzFrame rate : 46.875 FPS (1024 SPF)Compression mode : LossyStream size : 101 MiB (6%)Title : Russian / MVO, HDrezka StudioEncoded date : UTC 2018-07-28 14:48:12Tagged date : UTC 2018-07-28 15:35:00

Audio #4ID : 5Format : AACFormat/Info : Advanced Audio CodecFormat profile : LCCodec ID : mp4a-40-2Duration : 1 h 50 minBit rate mode : VariableBit rate : 128 kb/sMaximum bit rate : 136 kb/sChannel(s) : 2 channelsChannel positions : Front: L RSampling rate : 48.0 kHzFrame rate : 46.875 FPS (1024 SPF)Compression mode : LossyStream size : 101 MiB (6%)Title : English / OriginalEncoded date : UTC 2018-07-28 14:33:52Tagged date : UTC 2018-07-28 15:35:00

Text #1ID : 6Format : Timed TextCodec ID : tx3gDuration : 1 h 40 minBit rate mode : VariableBit rate : 2 b/sStream size : 1.22 KiB (0%)Title : Russian / ForcedForced : NoEncoded date : UTC 2018-07-28 15:35:00Tagged date : UTC 2018-07-28 15:35:00

Text #2ID : 7Format : Timed TextCodec ID : tx3gDuration : 1 h 40 minBit rate mode : VariableBit rate : 109 b/sStream size : 80.3 KiB (0%)Title : Russian / iTunesForced : NoEncoded date : UTC 2018-07-28 15:35:00Tagged date : UTC 2018-07-28 15:35:00

Text #3ID : 8Format : Timed TextCodec ID : tx3gDuration : 1 h 40 minBit rate mode : VariableBit rate : 5 b/sStream size : 3.77 KiB (0%)Title : Ukrainian / ForcedForced : NoEncoded date : UTC 2018-07-28 15:35:00Tagged date : UTC 2018-07-28 15:35:00

Text #4ID : 9Format : Timed TextCodec ID : tx3gDuration : 1 h 40 minBit rate mode : VariableBit rate : 69 b/sStream size : 50.7 KiB (0%)Title : English / FullForced : NoEncoded date : UTC 2018-07-28 15:35:00Tagged date : UTC 2018-07-28 15:35:00

Text #5ID : 10Format : Timed TextCodec ID : tx3gDuration : 1 h 40 minBit rate mode : VariableBit rate : 76 b/sStream size : 56.4 KiB (0%)Title : English / SDHForced : NoEncoded date : UTC 2018-07-28 15:35:00Tagged date : UTC 2018-07-28 15:35:00
</div>
</div>
За помощь в создании главного постера спасибо figasibe

Трекер:  [ 28-Июл-2018 19:36 ]

  

Скачать .torrent

Размер .torrent файла 20 KB


Размер: 3.94 GB
Хэш (hash) релиза: 1eb2a32d35557796842221a59b8018c16f9b43d5

Еще никто не оставлял запись к записи скачать торрент [VIDEO] Тихоокеанский рубеж: Дилогия Pacific Rim: Dilogy . Будь первым!

!Обратная связь