Скачать через торрент Инквизитор Серии: 1-12 из 12 Фильм бесплатно в хорошем качестве torrent

Скачивайте на UnionPeer.org фильмы через торрент без регистрации. Новинки кино в хорошем качестве через торрент. На UnionPeer.org можно скачать через торрент фильмы 2014 и 2015 годов. Самые новые фильмы.

Скачать торрент Инквизитор Серии: 1-12 из 12 бесплатно через .torrent фильм мультфильм сериал

Статистика раздачи
Размер:  17.64 GB   |    Зарегистрирован:  5 месяцев 23 дня   |    .torrent скачан:  183 раза   |   
Раздают:  1  
   
загрузка...
 
Автор Сообщение

Galfimbul

avatar Galfimbul


Инквизитор

Год выпуска: 2014
Производство: компания "Кинотелефильм", компания "Морозфильм"
Жанр: детектив, триллер
Продолжительность: ~00:52:00 серия
Субтитры: нет

Режиссёр: Юрий Мороз

В ролях: Виктория Исакова, Александр Лыков, Андрей Смоляков, Константин Лавроненко, Виктор Вержбицкий, Дарья Мороз, Никита Тезин, Николай Козак, Борис Каморзин, Надежда Маркина, Виталий Коваленко, Алексей Вертков, Дмитрий Астрахан, Роман Мадянов, Клавдия Коршунова, Александр Голубев, Анна Уколова, Виталий Коваленко, Арнис Лицитис
Описание: Провинциальный городок на западной границе России потрясает зловещая череда убийств. Некто с жестокостью средневекового инквизитора отправляет на тот свет влиятельных людей, оставляя загадочные послания на латыни. Кто следующий — Инквизитор подсказывает сам, но шанса на спасение не дает. Кажется, что Инквизитор может предугадать каждый шаг следствия, однако петербургская сыщица Наталья Серебрянская готова принять брошенный вызов…

Реклама: Нет.



Sample

Качество: WEBRip 1080p - Nikolspup
Формат: MKV
Видео кодек: H.264
Аудио кодек: AC3
Видео: MPEG4 AVC Video, H264, 16:9, 1920x1080, 25 fps, ~4000 kbps, 0.077 bit/pixel
Аудио: AC3 Dolby Digital, 48.0 kHz, 2/0 (L,R) ch, 192 kbps
General
Unique ID : 248559455601178287274501269010097606441 (0xBAFECF52593DBDCB8E2484845C2F8F29)
Complete name : J:\Inkvizitor.2014.WEB-DL.(1080p).Nikolspup\Inkvizitor.(01.seriya.iz.12).2014.WEB-DL.(1080p).Nikolspup.mkv
Format : Matroska
Format version : Version 4 / Version 2
File size : 1.55 GiB
Duration : 52 min 53 s
Overall bit rate mode : Variable
Overall bit rate : 4 197 kb/s
Encoded date : UTC 2018-07-25 12:02:22
Writing application : mkvmerge v7.8.0 ('River Man') 32bit built on Mar 27 2015 16:18:02
Writing library : libebml v1.3.1 + libmatroska v1.4.2

Video
ID : 1
Format : AVC
Format/Info : Advanced Video Codec
Format profile : High@L4
Format settings : CABAC / 3 Ref Frames
Format settings, CABAC : Yes
Format settings, ReFrames : 3 frames
Format settings, GOP : M=1, N=15
Codec ID : V_MPEG4/ISO/AVC
Duration : 52 min 53 s
Bit rate mode : Variable
Bit rate : 4 003 kb/s
Maximum bit rate : 40.0 Mb/s
Width : 1 920 pixels
Height : 1 080 pixels
Display aspect ratio : 16:9
Frame rate mode : Constant
Frame rate : 25.000 FPS
Color space : YUV
Chroma subsampling : 4:2:0
Bit depth : 8 bits
Scan type : Progressive
Bits/(Pixel*Frame) : 0.077
Stream size : 1.48 GiB (95%)
Default : Yes
Forced : No
Color range : Limited
Color primaries : BT.709
Transfer characteristics : BT.709
Matrix coefficients : BT.709

Audio
ID : 2
Format : AC-3
Format/Info : Audio Coding 3
Codec ID : A_AC3
Duration : 52 min 53 s
Bit rate mode : Constant
Bit rate : 192 kb/s
Channel(s) : 2 channels
Channel positions : Front: L R
Sampling rate : 48.0 kHz
Frame rate : 31.250 FPS (1536 SPF)
Bit depth : 16 bits
Compression mode : Lossy
Stream size : 72.6 MiB (5%)
Language : Russian
Service kind : Complete Main
Default : Yes
Forced : No


Трекер:  [ 30-Июл-2018 11:12 ]

  

Скачать .torrent

Размер .torrent файла 89 KB


Размер: 17.64 GB
Хэш (hash) релиза: 1b98ae5422c0fdf4012bb4f2da5373f8e8ed90ae
Подписка на обновления:

Еще никто не оставлял запись к записи скачать торрент Инквизитор Серии: 1-12 из 12 . Будь первым!

!Обратная связь