Скачать через торрент Потерянное счастье Фильм бесплатно в хорошем качестве torrent

Скачивайте на UnionPeer.org фильмы через торрент без регистрации. Новинки кино в хорошем качестве через торрент. На UnionPeer.org можно скачать через торрент фильмы 2014 и 2015 годов. Самые новые фильмы.

Скачать торрент Потерянное счастье бесплатно через .torrent фильм мультфильм сериал

Статистика раздачи
Размер:  745 MB   |    Зарегистрирован:  1 месяц 4 дня   |    .torrent скачан:  95 раз   |   
Раздают:  1  
   
загрузка...
 
Автор Сообщение

Galfimbul

avatar Galfimbul


Потерянное счастье



[b]Год выхода:
2018
Жанр: Мелодрама
Режиссер: Глеб Якубовский
В ролях: Ксения Кузнецова, Анжелика Маркелова, Алексей Фатеев, Мария Звонарёва, Светлана Тимофеева-Летуновская, Зоя Лирова, Виталия Корниенко, Игорь Климов

О фильме: Валентина Бондаренко (Ксения Кузнецова) живет в маленьком шахтерском городке вместе с любимым мужем Михаилом, дочкой Лизой и матерью. Внезапно в шахте происходит взрыв метана, и Михаил погибает. Теперь Вале одной придется поднимать дочь, обеспечивать себя и мать. Подруга Тамара (Мария Звонарева) предлагает ей отправиться в Москву в поисках лучшей жизни. Валя уезжает в надежде, что через полгода перевезет в столицу родных… Проходит одиннадцать лет. Жизнь Вали так и не устроилась, она живет и работает горничной в богатом доме, так и не вышла замуж и не видела дочь уже несколько лет. Лиза (Анжелика Маркелова) выросла и поступила в ветеринарную академию. Однажды она приезжает к матери с молодым человеком Алексеем, который не подозревает, что его подруга – дочь горничной…


Страна: Россия
Студия: Star Media
Продолжительность: 01:29:47
Перевод: Не требуется
Субтитры: Нет

Файл
Кодек: XviD
Качество: HDTVRip
Видео: 688x384 (1.79:1), 25 fps, XviD build 73 ~1021 kbps avg, 0.15 bit/pixel
Звук: 48 kHz, MPEG Layer 3, 2 ch, ~128.00 kbps avg
General
Complete name : Poteryannoe.Schastie.2018.HDTVRip.ot.Portablius.avi
Format : AVI
Format/Info : Audio Video Interleave
File size : 745 MiB
Duration : 1 h 29 min
Overall bit rate : 1 160 kb/s
Writing application : VirtualDubMod 1.5.10.3 | www.virtualdub-fr.org || (build 2550/release)
Writing library : VirtualDubMod build 2550/release

Video
ID : 0
Format : MPEG-4 Visual
Format profile : Advanced Simple@L5
Format settings, BVOP : 1
Format settings, QPel : No
Format settings, GMC : No warppoints
Format settings, Matrix : Custom
Codec ID : XVID
Codec ID/Hint : XviD
Duration : 1 h 29 min
Bit rate : 1 022 kb/s
Width : 688 pixels
Height : 384 pixels
Display aspect ratio : 16:9
Frame rate : 25.000 FPS
Color space : YUV
Chroma subsampling : 4:2:0
Bit depth : 8 bits
Scan type : Progressive
Compression mode : Lossy
Bits/(Pixel*Frame) : 0.155
Stream size : 656 MiB (88%)
Writing library : XviD 73

Audio
ID : 1
Format : MPEG Audio
Format version : Version 1
Format profile : Layer 3
Codec ID : 55
Codec ID/Hint : MP3
Duration : 1 h 29 min
Bit rate mode : Constant
Bit rate : 128 kb/s
Channel(s) : 2 channels
Sampling rate : 48.0 kHz
Compression mode : Lossy
Stream size : 82.2 MiB (11%)
Alignment : Aligned on interleaves
Interleave, duration : 40 ms (1.00 video frame)
Interleave, preload duratio : 504 ms
Writing library : LAME3.99r
Encoding settings : -m s -V 4 -q 2 -lowpass 17 -b 128
Источник http://BlaTor.org

Трекер:  [ 17-Сен-2018 19:20 ]

  

Скачать .torrent

Размер .torrent файла 15 KB


Размер: 745 MB
Хэш (hash) релиза: 81d54c444e0b81ea5943be3d7f72de5c0d56324d
Подписка на обновления:

Торренты, похожие на Потерянное счастье скачать торрент

Форум Название Автор Размер S L Добавлен
Российские фильмы 2016-2018 (Новинки русского кино) ·%· Потерянное счастье (2018) HDTVRip 720p от MediaClub Galfimbul 28236244432.63 GB 0 0 1537116023

19:40

16-Сен-18

Российские фильмы 2016-2018 (Новинки русского кино) ·%· Потерянное счастье (2018) HDTV 1080p от Generalfilm Galfimbul 48746149414.54 GB 0 0 1537038219

22:03

15-Сен-18

Российские фильмы 2016-2018 (Новинки русского кино) ·%· Потерянное счастье (2018) WEB-DLRip от Files-x Galfimbul 14646845441.36 GB 0 0 1537016084

15:54

15-Сен-18

Фильмы Ближнего Зарубежья ·· Потерянное счастье (Феруза Эгамбердиева) [2018, Казахстан, драма, DVB] Dub Galfimbul 11020119441.03 GB 0 0 1525679650

10:54

7-Май-18

Российские сериалы ·· Вероника. Потерянное счастье / Серии: 1-16 из 16 (Мирослав Малич) [2012, мелодрама, WEBRip (1080p)] Galfimbul 1996305265418.59 GB 0 0 1471799459

20:10

21-Авг-16

Российские сериалы ·· Вероника. Потерянное счастье / Серии: 1-14 из 16 (Мирослав Малич) [2012, Мелодрама, детектив, HDTVRip] damien1990 88195604488.21 GB 0 0 1363283859

20:57

14-Мар-13

Российские сериалы ·· Вероника. Потерянное счастье / Серии: 01-16 из 16 (Мирослав Малич) [2012, Мелодрама, HDTV 1080i] damien1990 4642081787243.23 GB 0 0 1363041908

01:45

12-Мар-13

Российские сериалы ·· Вероника. Потерянное счастье / Серии: 1-16 из 16 (Мирослав Малич) [2012, мелодрама, SATRip] L 92297871368.6 GB 0 0 1361698849

12:40

24-Фев-13

Российские сериалы ·· Вероника. Потерянное счастье / Серии: 1-16 из 16 (Мирослав Малич) [2012, Мелодрама, SATRip-AVC] Galfimbul 70559011836.57 GB 0 0 1361696886

12:08

24-Фев-13

Еще никто не оставлял запись к записи скачать торрент Потерянное счастье . Будь первым!

!Обратная связь