Скачать через торрент Последний убийца драконов The Last Dragonslayer Фильм бесплатно в хорошем качестве torrent

Скачивайте на UnionPeer.org фильмы через торрент без регистрации. Новинки кино в хорошем качестве через торрент. На UnionPeer.org можно скачать через торрент фильмы 2014 и 2015 годов. Самые новые фильмы.

Скачать торрент Последний убийца драконов The Last Dragonslayer бесплатно через .torrent фильм мультфильм сериал

Статистика раздачи
Размер:  3.52 GB   |    Зарегистрирован:  5 лет 4 месяца   |    .torrent скачан:  176 раз   |   
Раздают:  1  
 

Скачать Последний убийца драконов / The Last Dragonslayer (2016) WEB-DLRip 1080p | LakeFilms через torrent

 
 
Автор Сообщение

Galfimbul

avatar Galfimbul


Последний убийца драконов / The Last Dragonslayer

Год выпуска: 2016
Жанр: Фэнтези, комедия, приключения
Выпущено: Великобритания, Blueprint Pictures
Режиссер: Джейми Магнус Стоун
В ролях: Адиль Ахтар, Мэтт Берри, Даниэль Бьелич, Джон Брэдли, Эндрю Бакан, Джилл Бьюкэнэн, Фиби Кэмпбелл, Колин Майкл Кармайкл, Элизабет Чан, Анна Чэнселлор

О фильме: В старые добрые времена магия была необходима - она могла сохранить королевство и прочистить забившуюся канализацию. Но теперь магия исчезает: сливной фильтр дешевле, чем заклинание, а волшебные ковры используются для доставки пиццы. Пятнадцатилетний подкидыш, Дженнифер Стрейндж работает в Казаме, агентстве по найму волшебников, но в дни, когда магия выдыхается, всё труднее оставаться на плаву. А потом начинаются видения, предсказывающие смерть последнего дракона мира от рук неизвестного Убийцы драконов. Если видения окажутся правдой, то для Казама и Дженнифер изменится всё.




Техданные
Качество: WEB-DLRip (1080p)
Видео: MPEG-4 AVC, 4 655 kb/s, 1920x1080, 25.000 FPS
Аудио: AAC, 2 ch, 317 Кбит/с
Продолжительность: 01:41:00
Перевод: Любительский двухголосый закадровый
Присутствует реклама!
General
Unique ID : 21925373458327687776214152436721488382 (0x107EAC5F4221643E4CC1CF567C1191FE)
Complete name : D:LakeFIlmsThe.Last.Dragonslayer.2016.1080p.WEB-DL.LakeFilms.mkv
Format : Matroska
Format version : Version 4
File size : 3.52 GiB
Duration : 1 h 41 min
Overall bit rate : 4 975 kb/s
Encoded date : UTC 2018-10-17 18:31:57
Writing application : mkvmerge v27.0.0 ('Metropolis') 64-bit
Writing library : libebml v1.3.6 + libmatroska v1.4.9

Video
ID : 1
Format : AVC
Format/Info : Advanced Video Codec
Format profile : [email protected]
Format settings : CABAC / 4 Ref Frames
Format settings, CABAC : Yes
Format settings, ReFrames : 4 frames
Codec ID : V_MPEG4/ISO/AVC
Duration : 1 h 41 min
Bit rate : 4 655 kb/s
Width : 1 920 pixels
Height : 1 080 pixels
Display aspect ratio : 16:9
Frame rate mode : Constant
Frame rate : 25.000 FPS
Color space : YUV
Chroma subsampling : 4:2:0
Bit depth : 8 bits
Scan type : Progressive
Bits/(Pixel*Frame) : 0.090
Stream size : 3.29 GiB (94%)
Language : English
Default : Yes
Forced : No
Color range : Limited
Color primaries : BT.709
Transfer characteristics : BT.709
Matrix coefficients : BT.709

Audio
ID : 2
Format : AAC LC
Format/Info : Advanced Audio Codec Low Complexity
Codec ID : A_AAC-2
Duration : 1 h 41 min
Bit rate : 317 kb/s
Channel(s) : 2 channels
Channel layout : L R
Sampling rate : 48.0 kHz
Frame rate : 46.875 FPS (1024 SPF)
Compression mode : Lossy
Stream size : 230 MiB (6%)
Language : English
Default : Yes
Forced : No
Источник http://BlaTor.org

Внимание! AdBlock блокирует показ скриншотов, все вопросы к разработчикам )))
Трекер:  [ 18-Окт-2018 13:10 ]

  

Скачать .torrent

Размер .torrent файла 18 KB


Размер: 3.52 GB
Хэш (hash) релиза: 5e39ff9a1fa7712b066c54d29771b276da27c17b
Подписка на обновления:

Торренты, похожие на Последний убийца драконов The Last Dragonslayer скачать торрент

Форум Название Автор Размер S L Добавлен
Зарубежные фильмы 2016-2019 (Новинки зарубежного кино) ·%· Последний убийца драконов / The Last Dragonslayer (2016) WEB-DL 1080p | P Galfimbul 39190346683.65 GB 0 0 1575802813

14:00

8-Дек-19

Зарубежные фильмы 2016-2019 (Новинки зарубежного кино) ·%· Последний убийца драконов / The Last Dragonslayer (2016) WEB-DLRip | ТВ3 Galfimbul 15629721601.46 GB 0 0 1542190921

13:22

14-Ноя-18

Зарубежные фильмы 2016-2019 (Новинки зарубежного кино) ·%· Последний убийца драконов / The Last Dragonslayer (2016) WEB-DLRip 720p | LakeFilms Galfimbul 24054447312.24 GB 0 0 1539857502

13:11

18-Окт-18

Зарубежные фильмы 2016-2019 (Новинки зарубежного кино) ·%· Последний убийца драконов / The Last Dragonslayer (2016) WEB-DLRip | LakeFilms Galfimbul 18121645781.69 GB 0 0 1539857493

13:11

18-Окт-18

Зарубежные фильмы 2016-2019 (Новинки зарубежного кино) ·· Последний убийца драконов / The Last Dragonslayer (Джейми Магнус Стоун) [2016, фэнтези, комедия, приключения, HDTVRip] Galfimbul 14673756161.37 GB 0 0 1494962090

22:14

16-Май-17

Еще никто не оставлял запись к записи скачать торрент Последний убийца драконов The Last Dragonslayer . Будь первым!

!Обратная связь