Скачать через торрент Смолфут Smallfoot Фильм бесплатно в хорошем качестве torrent

Скачивайте на UnionPeer.org фильмы через торрент без регистрации. Новинки кино в хорошем качестве через торрент. На UnionPeer.org можно скачать через торрент фильмы 2014 и 2015 годов. Самые новые фильмы.

Скачать торрент Смолфут Smallfoot бесплатно через .torrent фильм мультфильм сериал

Статистика раздачи
Размер:  9.07 GB   |    Зарегистрирован:  5 месяцев 6 дней   |    .torrent скачан:  27 раз   |   
Раздают:  1  
   
загрузка...
 
Автор Сообщение

Galfimbul

avatar Galfimbul


Смолфут /Smallfoot

Год выхода: 2018
Жанр: Мультфильм, мюзикл, фэнтези, комедия, приключения, семейный, полнометражный
Режиссер: Кэри Киркпатрик, Джейсон Рейсиг
В ролях: Ченнинг Татум, Джеймс Корден, Зендая Колеман, Коммон, Леброн Джеймс, Дэнни ДеВито, Джина Родригез, Яра Шахиди, Эли Генри, Джимми Татро



О фильме: Молодой находчивый йети сталкивается с тем, кого, по его глубокому убеждению, не существует — человеком. Новости о «смолфуте» приносят ему славу и шанс завоевать девушку его мечты. А ещё — вызывают переполох среди простых йети, которые теперь гадают, кто же ещё обитает в большом мире за пределами их маленькой заснеженной деревушки.

Страна: США
Студия: Warner Animation Group, Warner Bros., Zaftig Films
Продолжительность: 01:36:17
Перевод: Дублированный | Лицензия

Качество: BDRip 1080p | 3D HOU
Видео: MPEG-4 AVC, 1920x1080, 11.2 Мbit/s, 23.976 fps
Звук:
Аудио #01: 48 kHz, AC3, 5.1, 640 Kbps | Дублированный | RUS |
Аудио #02: 48 kHz, AC3, 2.0, 160 Kbps | Дублированный | UKR |
Аудио #03: 48 kHz, DTS, 5.1, 1510 Kbps | Оригинал | ENG |
Субтитры: Русские (Forced, full), украинские (Forced), английские



Формат 3D: Half OverUnder - Вертикальная анаморфная стереопара.
Порядок ракурсов: левый ракурс первый
General
Unique ID : 233868795780880708390303965868995530760 (0xAFF17DDF151BD6AFDD05489EB22A5008)
Complete name : D:Video111Smallfoot.2018.Lic.3D.HOU.BDRip.1080p.seleZen.mkv
Format : Matroska
Format version : Version 4
File size : 9.07 GiB
Duration : 1 h 36 min
Overall bit rate : 13.5 Mb/s
Movie name : Smallfoot 2018 HOU 3D from селезень
Encoded date : UTC 2019-01-10 20:32:00
Writing application : mkvmerge v29.0.0 ('Like It Or Not') 64-bit
Writing library : libebml v1.3.6 + libmatroska v1.4.9

Video
ID : 1
Format : AVC
Format/Info : Advanced Video Codec
Format profile : High@L4.1
Format settings : CABAC / 4 Ref Frames
Format settings, CABAC : Yes
Format settings, ReFrames : 4 frames
Codec ID : V_MPEG4/ISO/AVC
Duration : 1 h 36 min
Bit rate : 11.2 Mb/s
Width : 1 920 pixels
Height : 1 080 pixels
Display aspect ratio : 16:9
Frame rate mode : Constant
Frame rate : 23.976 (24000/1001) FPS
Color space : YUV
Chroma subsampling : 4:2:0
Bit depth : 8 bits
Scan type : Progressive
Bits/(Pixel*Frame) : 0.225
Stream size : 7.52 GiB (83%)
Title : ??@HDSky
Writing library : x264 core 148 r2699+6+41 29a38aa Yuuki [8-bit@4:2:0 X86_64][GCC 5.3.0]
Encoding settings : cabac=1 / ref=3 / deblock=1:-3:-3 / analyse=0x3:0x113 / me=umh / subme=11 / psy=1 / fade_compensate=0.00 / psy_rd=1.00:0.05 / mixed_ref=1 / me_range=48 / chroma_me=1 / trellis=2 / 8x8dct=1 / cqm=0 / deadzone=21,11 / fast_pskip=0 / chroma_qp_offset=-2 / threads=24 / lookahead_threads=4 / sliced_threads=0 / nr=0 / decimate=1 / interlaced=0 / bluray_compat=0 / constrained_intra=0 / fgo=0 / bframes=8 / b_pyramid=2 / b_adapt=2 / b_bias=0 / direct=3 / weightb=1 / open_gop=0 / weightp=2 / keyint=250 / keyint_min=23 / scenecut=40 / intra_refresh=0 / rc_lookahead=40 / rc=crf / mbtree=0 / crf=17.6000 / qcomp=0.60 / qpmin=0:0:0 / qpmax=69:69:69 / qpstep=4 / vbv_maxrate=50000 / vbv_bufsize=40000 / crf_max=0.0 / nal_hrd=none / filler=0 / ip_ratio=1.40 / pb_ratio=1.30 / aq=3:0.90
Language : English
Default : Yes
Forced : No

Audio #1
ID : 2
Format : AC-3
Format/Info : Audio Coding 3
Commercial name : Dolby Digital
Codec ID : A_AC3
Duration : 1 h 36 min
Bit rate mode : Constant
Bit rate : 640 kb/s
Channel(s) : 6 channels
Channel layout : L R C LFE Ls Rs
Sampling rate : 48.0 kHz
Frame rate : 31.250 FPS (1536 SPF)
Bit depth : 16 bits
Compression mode : Lossy
Stream size : 441 MiB (5%)
Title : Dub [License]
Language : Russian
Service kind : Complete Main
Default : Yes
Forced : Yes

Audio #2
ID : 3
Format : AC-3
Format/Info : Audio Coding 3
Commercial name : Dolby Digital
Codec ID : A_AC3
Duration : 1 h 36 min
Bit rate mode : Constant
Bit rate : 160 kb/s
Channel(s) : 2 channels
Channel layout : L R
Sampling rate : 48.0 kHz
Frame rate : 31.250 FPS (1536 SPF)
Bit depth : 16 bits
Compression mode : Lossy
Stream size : 110 MiB (1%)
Title : Dub
Language : Ukrainian
Service kind : Complete Main
Default : No
Forced : No

Audio #3
ID : 4
Format : DTS
Format/Info : Digital Theater Systems
Codec ID : A_DTS
Duration : 1 h 36 min
Bit rate mode : Constant
Bit rate : 1 509 kb/s
Channel(s) : 6 channels
Channel layout : C L R Ls Rs LFE
Sampling rate : 48.0 kHz
Frame rate : 93.750 FPS (512 SPF)
Bit depth : 24 bits
Compression mode : Lossy
Stream size : 1.01 GiB (11%)
Title : Original
Language : English
Default : No
Forced : No

Text #1
ID : 5
Format : UTF-8
Codec ID : S_TEXT/UTF8
Codec ID/Info : UTF-8 Plain Text
Duration : 55 min 58 s
Bit rate : 1 b/s
Count of elements : 19
Stream size : 729 Bytes (0%)
Title : Forced
Language : Russian
Default : Yes
Forced : Yes

Text #2
ID : 6
Format : UTF-8
Codec ID : S_TEXT/UTF8
Codec ID/Info : UTF-8 Plain Text
Duration : 1 h 35 min
Bit rate : 108 b/s
Count of elements : 1500
Stream size : 76.0 KiB (0%)
Title : Full
Language : Russian
Default : No
Forced : No

Text #3
ID : 7
Format : UTF-8
Codec ID : S_TEXT/UTF8
Codec ID/Info : UTF-8 Plain Text
Duration : 55 min 59 s
Bit rate : 1 b/s
Count of elements : 19
Stream size : 750 Bytes (0%)
Title : Forced
Language : Ukrainian
Default : No
Forced : No

Text #4
ID : 8
Format : UTF-8
Codec ID : S_TEXT/UTF8
Codec ID/Info : UTF-8 Plain Text
Duration : 1 h 30 min
Bit rate : 75 b/s
Count of elements : 1774
Stream size : 50.2 KiB (0%)
Title : Full
Language : English
Default : No
Forced : No

Text #5
ID : 9
Format : UTF-8
Codec ID : S_TEXT/UTF8
Codec ID/Info : UTF-8 Plain Text
Duration : 1 h 30 min
Bit rate : 88 b/s
Count of elements : 2098
Stream size : 58.6 KiB (0%)
Title : SDH
Language : English
Default : No
Forced : No

Menu
00:00:00.000 : :Chapter 01
00:09:56.262 : :Chapter 02
00:21:36.295 : :Chapter 03
00:32:10.637 : :Chapter 04
00:38:33.602 : :Chapter 05
00:49:59.705 : :Chapter 06
00:55:37.167 : :Chapter 07
01:01:53.209 : :Chapter 08
01:12:04.278 : :Chapter 09
01:18:26.076 : :Chapter 10
01:26:16.796 : :Chapter 11
01:31:12.300 : :Chapter 12
Источник http://BlaTor.org

Трекер:  [ 10-Янв-2019 23:50 ]

  

Скачать .torrent

Размер .torrent файла 12 KB


Размер: 9.07 GB
Хэш (hash) релиза: a0b61b1ae06fa349be1027eeaaa829d39556b368
Подписка на обновления:

Торренты, похожие на Смолфут Smallfoot скачать торрент

Форум Название Автор Размер S L Добавлен
Мультфильмы 2016-2018 (Новинки мультфильмов) ·%· Смолфут / Smallfoot (2018) DVD9 | Лицензия Galfimbul 61929594885.77 GB 0 0 1554617418

09:10

7-Апр-19

Мультфильмы 2016-2018 (Новинки мультфильмов) ·%· Смолфут / Smallfoot (2018) BDRip 720p от KinoGadget | iPad | Лицензия Galfimbul 20672697991.93 GB 0 0 1547889629

12:20

19-Янв-19

Мультфильмы 2016-2018 (Новинки мультфильмов) ·%· Смолфут / Smallfoot (2018) BDRip-HEVC 1080p от M@kSIMus | Лицензия Galfimbul 67413699396.28 GB 0 0 1547201438

13:10

11-Янв-19

Мультфильмы 2016-2018 (Новинки мультфильмов) ·%· Смолфут / Smallfoot (2018) BDRip-AVC от OlLanDGroup | Лицензия Galfimbul 781374151745 MB 0 0 1547181020

07:30

11-Янв-19

Мультфильмы 2016-2018 (Новинки мультфильмов) ·%· Смолфут / Smallfoot (2018) BDRemux 1080p от селезень | 3D-Video | Лицензия Galfimbul 3448274944032.11 GB 0 0 1547154633

00:10

11-Янв-19

Мультфильмы 2016-2018 (Новинки мультфильмов) ·%· Смолфут / Smallfoot (2018) BDRip 1080p от селезень | 3D-Video | HSBS | Лицензия Galfimbul 96901136459.02 GB 0 0 1547153416

23:50

10-Янв-19

Мультфильмы 2016-2018 (Новинки мультфильмов) ·%· Смолфут / Smallfoot (2018) BDRip 720p от селезень | Лицензия Galfimbul 48965788394.56 GB 0 0 1547152239

23:30

10-Янв-19

Мультфильмы 2016-2018 (Новинки мультфильмов) ·%· Смолфут / Smallfoot (2018) BDRemux 1080p от селезень | Лицензия Galfimbul 1973420888318.38 GB 1 1 1547152228

23:30

10-Янв-19

Мультфильмы 2016-2018 (Новинки мультфильмов) ·%· Смолфут / Smallfoot (2018) Blu-Ray 1080p | Лицензия Galfimbul 4698360102743.76 GB 0 0 1547151026

23:10

10-Янв-19

Мультфильмы 2016-2018 (Новинки мультфильмов) ·%· Смолфут / Smallfoot (2018) BDRip 1080p от селезень | Лицензия Galfimbul 88688858528.26 GB 0 0 1547151014

23:10

10-Янв-19

Мультфильмы 2016-2018 (Новинки мультфильмов) ·%· Смолфут / Smallfoot (2018) BDRip 720p от HELLYWOOD | iTunes Galfimbul 39339404983.66 GB 0 0 1546927219

09:00

8-Янв-19

Мультфильмы 2016-2018 (Новинки мультфильмов) ·%· Смолфут / Smallfoot (2018) HDRip от Scarabey | iTunes Galfimbul 15044874241.4 GB 0 0 1546101690

19:41

29-Дек-18

Мультфильмы 2016-2018 (Новинки мультфильмов) ·%· Смолфут / Smallfoot (2018) HDRip от Scarabey | iTunes Galfimbul 780886016745 MB 0 0 1546101680

19:41

29-Дек-18

Мультфильмы 2016-2018 (Новинки мультфильмов) ·%· Смолфут / Smallfoot (2018) BDRip-AVC от OlLanDGroup | iTunes Galfimbul 781368567745 MB 0 0 1546020639

21:10

28-Дек-18

Мультфильмы 2016-2018 (Новинки мультфильмов) ·%· Смолфут / Smallfoot (2018) BDRip 1080p от Generalfilm | iTunes Galfimbul 44681228224.16 GB 0 0 1545995427

14:10

28-Дек-18

Зарубежные фильмы 2016-2018 (Новинки зарубежного кино) ·%· Смолфут / Smallfoot (2018) BDRip-AVC от Dalemake | iTunes Galfimbul 16000479591.49 GB 0 0 1545975620

08:40

28-Дек-18

Мультфильмы 2016-2018 (Новинки мультфильмов) ·%· Смолфут / Smallfoot (2018) BDRip от ExKinoRay | iTunes Galfimbul 15249923221.42 GB 4 0 1545946811

00:40

28-Дек-18

Мультфильмы 2016-2018 (Новинки мультфильмов) ·%· Смолфут / Smallfoot (2018) BDRip-HEVC 1080p от M@kSIMus | iTunes Galfimbul 65564442646.11 GB 0 0 1545945613

00:20

28-Дек-18

Мультфильмы 2016-2018 (Новинки мультфильмов) ·%· Смолфут / Smallfoot (2018) BDRip от MegaPeer | iTunes Galfimbul 782529636746 MB 0 0 1545898241

11:10

27-Дек-18

Еще никто не оставлял запись к записи скачать торрент Смолфут Smallfoot . Будь первым!

!Обратная связь