Скачать через торрент Иван Васильевич меняет профессию Фильм бесплатно в хорошем качестве torrent

Скачивайте на UnionPeer.org фильмы через торрент без регистрации. Новинки кино в хорошем качестве через торрент. На UnionPeer.org можно скачать через торрент фильмы 2014 и 2015 годов. Самые новые фильмы.

Скачать торрент Иван Васильевич меняет профессию бесплатно через .torrent фильм мультфильм сериал

Статистика раздачи
Размер:  7.95 GB   |    Зарегистрирован:  2 месяца 13 дней   |    .torrent скачан:  11 раз   |   
Раздают:  1  
   
загрузка...
 
Автор Сообщение

erzsebet

avatar erzsebet


Иван Васильевич меняет профессию




Страна: СССР
Студия: Мосфильм
Жанр: Фантастика, комедия, приключения, семейный
Год выпуска: 1973
Продолжительность: 01:31:38

Перевод: Не требуется
Субтитры: нет
Оригинальная аудиодорожка: русский

Режиссер: Леонид Гайдай

В ролях: Александр Демьяненко, Юрий Яковлев, Леонид Куравлёв, Наталья Крачковская, Савелий Крамаров, Наталья Селезнёва, Владимир Этуш, Михаил Пуговкин, Сергей Филиппов, Наталья Кустинская...

Описание: Инженер-изобретатель Тимофеев сконструировал машину времени, которая соединила его квартиру с далеким шестнадцатым веком - точнее, с палатами государя Ивана Грозного. Туда-то и попадают тезка царя пенсионер-общественник Иван Васильевич Бунша и квартирный вор Жорж Милославский.
На их место в двадцатом веке «переселяется» великий государь. Поломка машины приводит ко множеству неожиданных и забавных событий...

Тип релиза: BDRip 1080p
Контейнер: MKV
Видео: MPEG4 Video (H264) 1472x1080 23.976fps 11800kbps
Аудио: Dolby AC3 48000Hz 6ch 640kbps
Общее
Уникальный идентификатор : 208891164726253739299010069627052338756 (0x9D26F994C729F9C588C782BCF625AE44)
Полное имя : D:\Downloads\Иван_Васильевич_меняет_профессию_1973_BDRip_1080p.mkv
Формат : Matroska
Версия формата : Version 4 / Version 2
Размер файла : 7,95 Гбайт
Продолжительность : 1 ч. 31 м.
Режим общего битрейта : Переменный
Общий поток : 12,4 Мбит/сек
Дата кодирования : UTC 2019-01-11 21:26:22
Программа кодирования : mkvmerge v15.0.0 ('Duel with the Devil') 64-bit
Библиотека кодирования : libebml v1.3.5 + libmatroska v1.4.5

Видео
Идентификатор : 1
Формат : AVC
Формат/Информация : Advanced Video Codec
Профиль формата : High@L4.1
Настройки формата : CABAC / 4 Ref Frames
Параметр CABAC формата : Да
Параметр RefFrames формата : 4 кадра
Идентификатор кодека : V_MPEG4/ISO/AVC
Продолжительность : 1 ч. 31 м.
Вид битрейта : Переменный
Битрейт : 11,8 Мбит/сек
Максимальный битрейт : 40,0 Мбит/сек
Ширина : 1472 пикселя
Высота : 1080 пикселей
Соотношение сторон : 4:3
Режим частоты кадров : Постоянный
Частота кадров : 23,976 кадра/сек
Цветовое пространство : YUV
Субдискретизация насыщенности : 4:2:0
Битовая глубина : 8 бит
Тип развёртки : Прогрессивная
Бит/(Пиксели*Кадры) : 0.309
Размер потока : 7,54 Гбайт (95%)
Библиотека кодирования : x264 core 112 r1867 22bfd31
Настройки программы : cabac=1 / ref=5 / deblock=1:-3:-3 / analyse=0x3:0x113 / me=umh / subme=10 / psy=1 / psy_rd=1.00:0.10 / mixed_ref=1 / me_range=32 / chroma_me=1 / trellis=2 / 8x8dct=1 / cqm=0 / deadzone=21,11 / fast_pskip=0 / chroma_qp_offset=-4 / threads=6 / sliced_threads=0 / slices=4 / nr=0 / decimate=0 / interlaced=0 / constrained_intra=0 / bframes=7 / b_pyramid=1 / b_adapt=2 / b_bias=0 / direct=1 / weightb=1 / open_gop=0 / weightp=2 / keyint=250 / keyint_min=23 / scenecut=40 / intra_refresh=0 / rc_lookahead=40 / rc=2pass / mbtree=0 / bitrate=11782 / ratetol=1.0 / qcomp=0.60 / qpmin=10 / qpmax=51 / qpstep=4 / cplxblur=20.0 / qblur=0.5 / vbv_maxrate=40000 / vbv_bufsize=30000 / nal_hrd=vbr / ip_ratio=1.40 / pb_ratio=1.30 / aq=1:0.80
Язык : English
Default : Нет
Forced : Нет

Аудио
Идентификатор : 2
Формат : AC-3
Формат/Информация : Audio Coding 3
Идентификатор кодека : A_AC3
Продолжительность : 1 ч. 31 м.
Вид битрейта : Постоянный
Битрейт : 640 Кбит/сек
Каналы : 6 каналов
Расположение каналов : Front: L C R, Side: L R, LFE
Частота : 48,0 КГц
Частота кадров : 31,250 кадров/сек (1536 SPF)
Битовая глубина : 16 бит
Метод сжатия : С потерями
Размер потока : 420 Мбайт (5%)
Заголовок : AC3 640 кб/с
Язык : Russian
ServiceKind/String : Complete Main
Default : Да
Forced : Нет

Меню
00:00:00.000 : en:00:00:00.000
00:08:01.690 : en:00:08:01.690
00:12:06.684 : en:00:12:06.684
00:17:05.566 : en:00:17:05.566
00:22:05.699 : en:00:22:05.699
00:27:41.660 : en:00:27:41.660
00:31:35.811 : en:00:31:35.811
00:37:12.313 : en:00:37:12.313
00:46:36.127 : en:00:46:36.127
00:49:43.063 : en:00:49:43.063
00:59:18.638 : en:00:59:18.638
01:06:17.098 : en:01:06:17.098
01:09:48.226 : en:01:09:48.226
01:18:32.625 : en:01:18:32.625
01:23:40.015 : en:01:23:40.015
01:28:22.672 : en:01:28:22.672


Трекер:  [ 12-Янв-2019 00:40 ]

  

Скачать .torrent

Размер .torrent файла 11 KB


Размер: 7.95 GB
Хэш (hash) релиза: 7d2b524c4a3f2f83835735cdfb5748afeff76b3d
Подписка на обновления:

Торренты, похожие на Иван Васильевич меняет профессию скачать торрент

Форум Название Автор Размер S L Добавлен
Российские фильмы до 2016 ·*· Иван Васильевич меняет профессию (Леонид Гайдай) [1973, СССР, фантастика, комедия, приключения, семейный, BDRip 1080p] erzsebet 1219134241411.35 GB 0 0 1547253268

03:34

12-Янв-19

Российские фильмы до 2016 ·*· Иван Васильевич меняет профессию (Леонид Гайдай) [1973, СССР, фантастика, комедия, приключения, семейный, BDRip 720p] erzsebet 46877252484.37 GB 0 0 1547243487

00:51

12-Янв-19

Российские фильмы до 2016 ·· Иван Васильевич меняет профессию (Леонид Гайдай) [1973, СССР, Фантастика, Комедия, Приключения, Семейный, DVD9] + Sub Rus, Eng, Fra, Deu, Esp + Original Rus / RUSCICO Galfimbul 76619878407.14 GB 0 0 1380228377

23:46

26-Сен-13

PSVita | Видео ·· [VITA][FILM] Иван Васильевич меняет профессию [Леонид Гайдай][1973 г., Комедия, Приключения., BDRip] Galfimbul 23593654142.2 GB 0 0 1371010190

07:09

12-Июн-13

Российские фильмы до 2016 ·· Иван Васильевич меняет профессию (Леонид Гайдай) [1973, СССР, Комедия, DVD9(CUSTOM) + DVD5] Sub Rus + Original Rus Leito57 86465772018.05 GB 0 0 1330007700

17:35

23-Фев-12

Российские фильмы до 2016 ·· Иван Васильевич меняет профессию (Леонид Гайдай) [1973, Фантастика, комедия, приключения, семейный, HDRip] L 779655168744 MB 0 0 1325619075

22:31

3-Янв-12

Российские фильмы до 2016 ·· Иван Васильевич меняет профессию (Леонид Гайдай) [1973, СССР, фантастика, комедия, приключения, семейный, Blu-ray disc] L 2268659942221.13 GB 0 0 1323542435

21:40

10-Дек-11

Российские фильмы до 2016 ·· Иван Васильевич меняет профессию (Леонид Гайдай) [1973, фантастика, комедия, приключения, семейный, BDRip] sebladec 15464857601.44 GB 0 0 1300294496

19:54

16-Мар-11

Российские фильмы до 2016 ·· Иван Васильевич меняет профессию (Леонид Гайдай) [1973, СССР, фантастика, комедия, приключения, семейный, BDRip 1080p] sebladec 85029058637.92 GB 0 0 1300007552

12:12

13-Мар-11

Российские фильмы до 2016 ·· Иван Васильевич меняет профессию (Леонид Гайдай) [1973, фантастика, комедия, приключения, семейный, BDRip-AVC] + Sub rus sebladec 23465855452.19 GB 0 0 1300007444

12:10

13-Мар-11

Российские фильмы до 2016 ·· Иван Васильевич меняет профессию (Леонид Гайдай) [1973, СССР, фантастика, комедия, приключения, семейный, BDRip 720p] sebladec 63665017555.93 GB 0 0 1299946989

19:23

12-Мар-11

Российские фильмы до 2016 ·· Иван Васильевич меняет профессию (Крупный план) (Леонид Гайдай) [1973 г., Комедия, фантастика, DVD5] uzi2009 47059630944.38 GB 0 0 1292327328

14:48

14-Дек-10

Российские фильмы до 2016 ·· Иван Васильевич меняет профессию (Леонид Гайдай) [1973 г., Комедия, DVDRip] alf112 15659745281.46 GB 0 0 1290433093

16:38

22-Ноя-10

Еще никто не оставлял запись к записи скачать торрент Иван Васильевич меняет профессию . Будь первым!

!Обратная связь