Скачать через торрент Иван Васильевич меняет профессию Фильм бесплатно в хорошем качестве torrent

Скачивайте на UnionPeer.org фильмы через торрент без регистрации. Новинки кино в хорошем качестве через торрент. На UnionPeer.org можно скачать через торрент фильмы 2014 и 2015 годов. Самые новые фильмы.

Скачать торрент Иван Васильевич меняет профессию бесплатно через .torrent фильм мультфильм сериал

Статистика раздачи
Размер:  11.35 GB   |    Зарегистрирован:  6 дней   |    .torrent скачан:  8 раз   |   
Раздают:  1  
   
загрузка...
 
Автор Сообщение

erzsebet

avatar erzsebet


Иван Васильевич меняет профессию




Страна: СССР
Студия: Мосфильм
Жанр: Фантастика, комедия, приключения, семейный
Год выпуска: 1973
Продолжительность: 01:31:38

Перевод: Не требуется
Субтитры: нет
Оригинальная аудиодорожка: русский

Режиссер: Леонид Гайдай

В ролях: Александр Демьяненко, Юрий Яковлев, Леонид Куравлёв, Наталья Крачковская, Савелий Крамаров, Наталья Селезнёва, Владимир Этуш, Михаил Пуговкин, Сергей Филиппов, Наталья Кустинская...

Описание: Инженер-изобретатель Тимофеев сконструировал машину времени, которая соединила его квартиру с далеким шестнадцатым веком - точнее, с палатами государя Ивана Грозного. Туда-то и попадают тезка царя пенсионер-общественник Иван Васильевич Бунша и квартирный вор Жорж Милославский.
На их место в двадцатом веке «переселяется» великий государь. Поломка машины приводит ко множеству неожиданных и забавных событий...

Тип релиза: BDRip 1080p
Контейнер: MKV
Видео: MPEG4 Video (H264) 1480x1080 23.976fps 16000kbps
Аудио: DTS 48000Hz 6ch 1536kbps
Аудио: Dolby AC3 48000Hz mono 224kbps
Общее
Уникальный идентификатор : 243587749143801643218199876124559756899 (0xB7414B44A52F15F5AD77CF470B7F4E63)
Полное имя : R:\Наше кино\Иван Васильевич меняет профессию.BDRip1080p.mkv
Формат : Matroska
Версия формата : Version 4 / Version 2
Размер файла : 11,4 Гбайт
Продолжительность : 1 ч. 31 м.
Общий поток : 17,7 Мбит/сек
Название фильма : Иван Васильевич меняет профессию
Дата кодирования : UTC 2013-02-07 17:12:22
Программа кодирования : mkvmerge v6.0.0 ('Coming Up For Air') built on Jan 20 2013 09:52:00
Библиотека кодирования : libebml v1.3.0 + libmatroska v1.4.0

Видео
Идентификатор : 1
Формат : AVC
Формат/Информация : Advanced Video Codec
Профиль формата : High@L4.1
Настройки формата : CABAC / 4 Ref Frames
Параметр CABAC формата : Да
Параметр RefFrames формата : 4 кадра
Идентификатор кодека : V_MPEG4/ISO/AVC
Продолжительность : 1 ч. 31 м.
Битрейт : 16,0 Мбит/сек
Ширина : 1480 пикселей
Высота : 1080 пикселей
Соотношение сторон : 1,370
Режим частоты кадров : Постоянный
Частота кадров : 23,976 (24000/1001) кадра/сек
Цветовое пространство : YUV
Субдискретизация насыщенности : 4:2:0
Битовая глубина : 8 бит
Тип развёртки : Прогрессивная
Бит/(Пиксели*Кадры) : 0.418
Размер потока : 10,0 Гбайт (88%)
Заголовок : Иван Васильевич меняет профессию.BDRip1080p_[rutracker.org]
Библиотека кодирования : x264 core 129 r2230 1cffe9f
Настройки программы : cabac=1 / ref=4 / deblock=1:-3:-3 / analyse=0x3:0x133 / me=umh / subme=10 / psy=1 / psy_rd=1.00:0.10 / mixed_ref=1 / me_range=32 / chroma_me=1 / trellis=2 / 8x8dct=1 / cqm=0 / deadzone=21,11 / fast_pskip=0 / chroma_qp_offset=-3 / threads=6 / lookahead_threads=1 / sliced_threads=0 / nr=0 / decimate=1 / interlaced=0 / bluray_compat=0 / constrained_intra=0 / bframes=12 / b_pyramid=2 / b_adapt=2 / b_bias=0 / direct=3 / weightb=1 / open_gop=0 / weightp=2 / keyint=240 / keyint_min=23 / scenecut=40 / intra_refresh=0 / rc_lookahead=60 / rc=2pass / mbtree=1 / bitrate=16000 / ratetol=1.0 / qcomp=0.60 / qpmin=0 / qpmax=69 / qpstep=4 / cplxblur=20.0 / qblur=0.5 / ip_ratio=1.40 / aq=2:1.00
Язык : Russian
Default : Да
Forced : Нет
Цветовой диапазон : Limited
Коэффициенты матрицы : BT.709

Аудио #1
Идентификатор : 2
Формат : DTS
Формат/Информация : Digital Theater Systems
Идентификатор кодека : A_DTS
Продолжительность : 1 ч. 31 м.
Вид битрейта : Постоянный
Битрейт : 1509 Кбит/сек
Каналы : 6 каналов
Расположение каналов : Front: L C R, Side: L R, LFE
Частота : 48,0 КГц
Частота кадров : 93,750 кадра/сек (512 SPF)
Битовая глубина : 24 бит
Метод сжатия : С потерями
Размер потока : 989 Мбайт (9%)
Язык : Russian
Default : Да
Forced : Нет

Аудио #2
Идентификатор : 3
Формат : AC-3
Формат/Информация : Audio Coding 3
Идентификатор кодека : A_AC3
Продолжительность : 1 ч. 31 м.
Вид битрейта : Постоянный
Битрейт : 224 Кбит/сек
Каналы : 1 канал
Расположение каналов : Front: C
Частота : 48,0 КГц
Частота кадров : 31,250 кадров/сек (1536 SPF)
Битовая глубина : 16 бит
Метод сжатия : С потерями
Размер потока : 147 Мбайт (1%)
Язык : Russian
ServiceKind/String : Complete Main
Default : Нет
Forced : Нет

Меню
00:00:00.000 : :Chapter 01
00:08:01.689 : :Chapter 02
00:12:06.684 : :Chapter 03
00:17:05.566 : :Chapter 04
00:22:05.699 : :Chapter 05
00:27:41.659 : :Chapter 06
00:31:35.810 : :Chapter 07
00:37:12.313 : :Chapter 08
00:46:36.126 : :Chapter 09
00:49:43.063 : :Chapter 10
00:59:18.638 : :Chapter 11
01:06:17.098 : :Chapter 12
01:09:48.225 : :Chapter 13
01:18:32.624 : :Chapter 14
01:23:40.015 : :Chapter 15
01:28:22.672 : :Chapter 16
01:31:37.825 : :Chapter 17


Трекер:  [ 12-Янв-2019 03:34 ]

  

Скачать .torrent

Размер .torrent файла 15 KB


Размер: 11.35 GB
Хэш (hash) релиза: 0eb941ea40518656586f628756bd6aeee45dae0f
Подписка на обновления:

Торренты, похожие на Иван Васильевич меняет профессию скачать торрент

Форум Название Автор Размер S L Добавлен
Российские фильмы до 2016 ·*· Иван Васильевич меняет профессию (Леонид Гайдай) [1973, СССР, фантастика, комедия, приключения, семейный, BDRip 720p] erzsebet 46877252484.37 GB 0 0 1547243487

00:51

12-Янв-19

Российские фильмы до 2016 ·*· Иван Васильевич меняет профессию (Леонид Гайдай) [1973, СССР, фантастика, комедия, приключения, семейный, BDRip 1080p] erzsebet 85374838587.95 GB 0 0 1547242855

00:40

12-Янв-19

Российские фильмы до 2016 ·· Иван Васильевич меняет профессию (Леонид Гайдай) [1973, СССР, Фантастика, Комедия, Приключения, Семейный, DVD9] + Sub Rus, Eng, Fra, Deu, Esp + Original Rus / RUSCICO Galfimbul 76619878407.14 GB 0 0 1380228377

23:46

26-Сен-13

PSVita | Видео ·· [VITA][FILM] Иван Васильевич меняет профессию [Леонид Гайдай][1973 г., Комедия, Приключения., BDRip] Galfimbul 23593654142.2 GB 0 0 1371010190

07:09

12-Июн-13

Российские фильмы до 2016 ·· Иван Васильевич меняет профессию (Леонид Гайдай) [1973, СССР, Комедия, DVD9(CUSTOM) + DVD5] Sub Rus + Original Rus Leito57 86465772018.05 GB 0 0 1330007700

17:35

23-Фев-12

Российские фильмы до 2016 ·· Иван Васильевич меняет профессию (Леонид Гайдай) [1973, Фантастика, комедия, приключения, семейный, HDRip] L 779655168744 MB 0 0 1325619075

22:31

3-Янв-12

Российские фильмы до 2016 ·· Иван Васильевич меняет профессию (Леонид Гайдай) [1973, СССР, фантастика, комедия, приключения, семейный, Blu-ray disc] L 2268659942221.13 GB 0 0 1323542435

21:40

10-Дек-11

Российские фильмы до 2016 ·· Иван Васильевич меняет профессию (Леонид Гайдай) [1973, фантастика, комедия, приключения, семейный, BDRip] sebladec 15464857601.44 GB 0 0 1300294496

19:54

16-Мар-11

Российские фильмы до 2016 ·· Иван Васильевич меняет профессию (Леонид Гайдай) [1973, СССР, фантастика, комедия, приключения, семейный, BDRip 1080p] sebladec 85029058637.92 GB 0 0 1300007552

12:12

13-Мар-11

Российские фильмы до 2016 ·· Иван Васильевич меняет профессию (Леонид Гайдай) [1973, фантастика, комедия, приключения, семейный, BDRip-AVC] + Sub rus sebladec 23465855452.19 GB 0 0 1300007444

12:10

13-Мар-11

Российские фильмы до 2016 ·· Иван Васильевич меняет профессию (Леонид Гайдай) [1973, СССР, фантастика, комедия, приключения, семейный, BDRip 720p] sebladec 63665017555.93 GB 0 0 1299946989

19:23

12-Мар-11

Российские фильмы до 2016 ·· Иван Васильевич меняет профессию (Крупный план) (Леонид Гайдай) [1973 г., Комедия, фантастика, DVD5] uzi2009 47059630944.38 GB 0 0 1292327328

14:48

14-Дек-10

Российские фильмы до 2016 ·· Иван Васильевич меняет профессию (Леонид Гайдай) [1973 г., Комедия, DVDRip] alf112 15659745281.46 GB 0 0 1290433093

16:38

22-Ноя-10

Еще никто не оставлял запись к записи скачать торрент Иван Васильевич меняет профессию . Будь первым!

!Обратная связь