Скачать через торрент Отклыкаченны Fanged Up Фильм бесплатно в хорошем качестве torrent

Скачивайте на UnionPeer.org фильмы через торрент без регистрации. Новинки кино в хорошем качестве через торрент. На UnionPeer.org можно скачать через торрент фильмы 2014 и 2015 годов. Самые новые фильмы.

Скачать торрент Отклыкаченны Fanged Up бесплатно через .torrent фильм мультфильм сериал

Статистика раздачи
Размер:  1.24 GB   |    Зарегистрирован:  2 месяца 6 дней   |    .torrent скачан:  43 раза   |   
Раздают:  1  
   
загрузка...
 
Автор Сообщение

Galfimbul

avatar Galfimbul


Отклыкаченны /Fanged Up

Год выхода: 2017
Жанр: Ужасы, комедия
Режиссер: Кристиан Джеймс
В ролях: Дэниэл О'Рейли, Даниэль Харольд, Стю Беннет, Вэс Блэквуд, Стивен Маркус, Стивен Беркофф, Лорен Сока, Крис Р. Райт, Хув Сэмюэл, Роланд Манукян
О фильме:
Дэнни - мелкий мошенник, который работает посудомойщиком в ночном клубе. Однажды он ввязывается в драку, после которой его внезапно отправляют в одну из самых зловещих тюрем Англии - Стоуксвиль. Там он начинает понимать, что это была не случайность, и у администрации тюрьмы на него особые планы.



Страна: Великобритания
Продолжительность: 01:28:37
Перевод: Любительский (двухголосый закадровый) | HiWay Grope

Файл
Кодек: XviD
Качество: WEBRip
Видео: 720x304, 23.976 fps, ~1799 kbps, 0.34 bit/pixel
Звук:
Аудио rus: AC3, 48 kHz, 2 ch, 192 Kbps
Субтитры: отсутствуют

Реклама: присутствует

Семпл
General
Complete name : D:Fanged.Up.2017.WEBRip.HiWayGropeFanged.Up.2017.WEBRip.HiWayGrope.avi
Format : AVI
Format/Info : Audio Video Interleave
Format profile : OpenDML
File size : 1.24 GiB
Duration : 1 h 28 min
Overall bit rate : 1 999 kb/s
Writing application : Lavf57.71.100

Video
ID : 0
Format : MPEG-4 Visual
Format profile : Advanced Simple@L5
Format settings, BVOP : No
Format settings, QPel : No
Format settings, GMC : No warppoints
Format settings, Matrix : Default (H.263)
Codec ID : XVID
Codec ID/Hint : XviD
Duration : 1 h 28 min
Bit rate : 1 794 kb/s
Width : 720 pixels
Height : 304 pixels
Display aspect ratio : 2.35:1
Frame rate : 23.976 (24000/1001) FPS
Color space : YUV
Chroma subsampling : 4:2:0
Bit depth : 8 bits
Scan type : Progressive
Compression mode : Lossy
Bits/(Pixel*Frame) : 0.342
Stream size : 1.11 GiB (90%)
Writing library : XviD 67

Audio
ID : 1
Format : AC-3
Format/Info : Audio Coding 3
Commercial name : Dolby Digital
Codec ID : 2000
Duration : 1 h 28 min
Bit rate mode : Constant
Bit rate : 192 kb/s
Channel(s) : 2 channels
Channel layout : L R
Sampling rate : 48.0 kHz
Frame rate : 31.250 FPS (1536 SPF)
Bit depth : 16 bits
Compression mode : Lossy
Stream size : 122 MiB (10%)
Alignment : Aligned on interleaves
Interleave, duration : 32 ms (0.77 video frame)
Service kind : Complete Main
Релиз от: HiWay Grope
Источник http://BlaTor.org

Трекер:  [ 12-Янв-2019 10:50 ]

  

Скачать .torrent

Размер .torrent файла 13 KB


Размер: 1.24 GB
Хэш (hash) релиза: 4ba15327226e19495de12f98fbb6be287159f9b5
Подписка на обновления:

Торренты, похожие на Отклыкаченны Fanged Up скачать торрент

Форум Название Автор Размер S L Добавлен
Зарубежные фильмы 2016-2018 (Новинки зарубежного кино) ·%· Отклыкаченны / Fanged Up (2017) WEBRip 720p | L2 Galfimbul 21157564401.97 GB 0 0 1547279448

10:50

12-Янв-19

Еще никто не оставлял запись к записи скачать торрент Отклыкаченны Fanged Up . Будь первым!

!Обратная связь