Скачать через торрент Варкрафт Warcraft Фильм бесплатно в хорошем качестве torrent

Скачивайте на UnionPeer.org фильмы через торрент без регистрации. Новинки кино в хорошем качестве через торрент. На UnionPeer.org можно скачать через торрент фильмы 2014 и 2015 годов. Самые новые фильмы.

Скачать торрент Варкрафт Warcraft бесплатно через .torrent фильм мультфильм сериал

Статистика раздачи
Размер:  7.85 GB   |    Зарегистрирован:  5 лет 1 месяц   |    .torrent скачан:  86 раз   |   
Раздают:  1  
 

Скачать Варкрафт / Warcraft (2016) BDRip-HEVC 1080p | Лицензия через torrent

 
 
Автор Сообщение

Galfimbul

avatar Galfimbul


Год выхода: 2016
Страна: Китай, Канада, Япония, США
Жанр: Фэнтези, боевик, приключения, [url=/tag/1/][/url]
Продолжительность: 02:03:07
Перевод: Дублированный (Лицензия)

Режиссер: Дункан Джонс
В главных ролях: Трэвис Фиммел, Пола Пэттон, Бен Фостер, Доминик Купер, Тоби Кеббелл, Бен Шнетцер, Роберт Казински, Клэнси Браун, Дэниэл Ву, Рут Негга

Описание:  Веками магия и неприступные стены защищали людей от любых напастей. Но древнее зло, побежденное и забытое тысячелетия назад, пробудилось. В самом сердце королевства открылся темный портал, и раса невиданных существ наводнила земли Азерота. Так начались события, призванные навсегда изменить судьбу этого мира.

Качество: BDRip 1080p
Видео: HEVC/H.265, 1920x790, ~7842 Kbps
Аудио 1: AC3, 6 ch, 640 Kbps - Дублированный
Аудио 2: AC3, 6 ch, 640 Kbps - Английский
Субтитры: Русские (форсированные, полные), английские
Общее
Уникальный идентификатор : 179435711444144584710065671223918615338 (0x86FE0F9C240FD5EF8158D05A21FA5B2A)
Полное имя : F:РАЗДАЧИВаркрафт (1080p) HEVC.mkv
Формат : Matroska
Версия формата : Version 4 / Version 2
Размер файла : 7,85 Гбайт
Продолжительность : 2 ч. 3 м.
Общий поток : 9124 Кбит/сек
Дата кодирования : UTC 2016-09-29 16:57:19
Программа кодирования : mkvmerge v9.2.0 ('Photograph') 64bit
Библиотека кодирования : libebml v1.3.3 + libmatroska v1.4.4

Видео
Идентификатор : 1
Формат : HEVC
Формат/Информация : High Efficiency Video Coding
Профиль формата : Main@L4@Main
Идентификатор кодека : V_MPEGH/ISO/HEVC
Продолжительность : 2 ч. 3 м.
Битрейт : 7842 Кбит/сек
Ширина : 1920 пикселей
Высота : 790 пикселей
Соотношение сторон : 2,40:1
Режим частоты кадров : Постоянный
Частота кадров : 23,976 (24000/1001) кадра/сек
Цветовое пространство : YUV
Субдискретизация насыщенности : 4:2:0
Битовая глубина : 8 бит
Бит/(Пиксели*Кадры) : 0.216
Размер потока : 6,74 Гбайт (86%)
Библиотека кодирования : x265 2.1+5-9373283232a0:[Windows][GCC 5.3.1][64 bit] 8bit
Настройки программы : wpp / ctu=64 / min-cu-size=8 / max-tu-size=32 / tu-intra-depth=1 / tu-inter-depth=1 / me=2 / subme=5 / merange=57 / no-rect / no-amp / max-merge=5 / temporal-mvp / no-early-skip / rskip / rdpenalty=0 / no-tskip / no-tskip-fast / strong-intra-smoothing / no-lossless / no-cu-lossless / no-constrained-intra / no-fast-intra / open-gop / no-temporal-layers / interlace=0 / keyint=250 / min-keyint=23 / scenecut=40 / rc-lookahead=60 / lookahead-slices=0 / bframes=8 / bframe-bias=0 / b-adapt=2 / ref=5 / limit-refs=3 / no-limit-modes / weightp / weightb / aq-mode=3 / qg-size=64 / aq-strength=1.00 / cbqpoffs=0 / crqpoffs=0 / rd=3 / psy-rd=1.00 / rdoq-level=2 / psy-rdoq=1.00 / log2-max-poc-lsb=8 / no-rd-refine / signhide / deblock=-3:-3 / no-sao / no-sao-non-deblock / b-pyramid / no-cutree / no-intra-refresh / rc=2 / pass / bitrate=7841 / qcomp=0.80 / qpmin=0 / qpmax=69 / qpstep=4 / cplxblur=20.0 / qblur=0.5 / ipratio=1.40 / pbratio=1.30
Default : Да
Forced : Нет

Аудио #1
Идентификатор : 2
Формат : AC-3
Формат/Информация : Audio Coding 3
Идентификатор кодека : A_AC3
Продолжительность : 2 ч. 3 м.
Вид битрейта : Постоянный
Битрейт : 640 Кбит/сек
Каналы : 6 каналов
Расположение каналов : Front: L C R, Side: L R, LFE
Частота : 48,0 КГц
Частота кадров : 31,250 кадров/сек (1536 SPF)
Битовая глубина : 16 бит
Метод сжатия : С потерями
Размер потока : 564 Мбайт (7%)
Заголовок : Дублированный
Язык : Russian
ServiceKind/Strin : Complete Main
Default : Да
Forced : Нет

Аудио #2
Идентификатор : 3
Формат : AC-3
Формат/Информация : Audio Coding 3
Идентификатор кодека : A_AC3
Продолжительность : 2 ч. 3 м.
Вид битрейта : Постоянный
Битрейт : 640 Кбит/сек
Каналы : 6 каналов
Расположение каналов : Front: L C R, Side: L R, LFE
Частота : 48,0 КГц
Частота кадров : 31,250 кадров/сек (1536 SPF)
Битовая глубина : 16 бит
Метод сжатия : С потерями
Размер потока : 564 Мбайт (7%)
Заголовок : Original
Язык : English
ServiceKind/Strin : Complete Main
Default : Нет
Forced : Нет

Текст #1
Идентификатор : 4
Формат : UTF-8
Идентификатор кодека : S_TEXT/UTF8
Идентификатор кодека/Информация : UTF-8 Plain Text
Продолжительность : 1 ч. 43 м.
Битрейт : 0 бит/сек
ElementCount : 9
Размер потока : 312 байт (0%)
Заголовок : Forced
Язык : Russian
Default : Да
Forced : Да

Текст #2
Идентификатор : 5
Формат : UTF-8
Идентификатор кодека : S_TEXT/UTF8
Идентификатор кодека/Информация : UTF-8 Plain Text
Продолжительность : 1 ч. 53 м.
Битрейт : 57 бит/сек
ElementCount : 1053
Размер потока : 48,3 Кбайт (0%)
Язык : Russian
Default : Нет
Forced : Нет

Текст #3
Идентификатор : 6
Формат : UTF-8
Идентификатор кодека : S_TEXT/UTF8
Идентификатор кодека/Информация : UTF-8 Plain Text
Продолжительность : 1 ч. 52 м.
Битрейт : 36 бит/сек
ElementCount : 1234
Размер потока : 30,1 Кбайт (0%)
Язык : English
Default : Нет
Forced : Нет

Текст #4
Идентификатор : 7
Формат : UTF-8
Идентификатор кодека : S_TEXT/UTF8
Идентификатор кодека/Информация : UTF-8 Plain Text
Продолжительность : 1 ч. 53 м.
Битрейт : 41 бит/сек
ElementCount : 1393
Размер потока : 35,0 Кбайт (0%)
Заголовок : SDH
Язык : English
Default : Нет
Forced : Нет

Меню
00:00:00.000 : en:Chapter 1
00:09:27.000 : en:Chapter 2
00:15:51.000 : en:Chapter 3
00:22:38.000 : en:Chapter 4
00:29:18.000 : en:Chapter 5
00:38:44.000 : en:Chapter 6
00:46:45.000 : en:Chapter 7
00:53:04.000 : en:Chapter 8
00:56:19.000 : en:Chapter 9
01:02:45.000 : en:Chapter 10
01:07:50.000 : en:Chapter 11
01:12:26.000 : en:Chapter 12
01:17:14.000 : en:Chapter 13
01:22:47.000 : en:Chapter 14
01:26:34.000 : en:Chapter 15
01:32:31.000 : en:Chapter 16
01:40:23.000 : en:Chapter 17
01:47:38.000 : en:Chapter 18
01:51:13.000 : en:Chapter 19
01:53:59.000 : en:Chapter 20

Источник http://BlaTor.org

Внимание! AdBlock блокирует показ скриншотов, все вопросы к разработчикам )))
Трекер:  [ 23-Янв-2019 20:30 ]

  

Скачать .torrent

Размер .torrent файла 39 KB


Размер: 7.85 GB
Хэш (hash) релиза: e8e509fb6e0c8625e2c4cd0efb2d8497bc6e4ec1
Подписка на обновления:

Торренты, похожие на Варкрафт Warcraft скачать торрент

Форум Название Автор Размер S L Добавлен
Зарубежные фильмы 2016-2019 (Новинки зарубежного кино) ·%· Варкрафт / Warcraft (2016) BDRip-HEVC 1080p от M@kSIMus | Лицензия Galfimbul 89632202738.35 GB 0 0 1551858659

10:50

6-Мар-19

Зарубежные фильмы до 2016 ·· Варкрафт / Warcraft (Дункан Джонс / Duncan Jones) [2016, США, фэнтези, BDRemux 1080p] Dub (Пифагор) + MVO (FocusStudio) + 3х VO (Солодухин, Есарев, Дасевич) + 2x AVO (Гаврилов & Живов) + Original Eng + Sub Rus, Eng Galfimbul 5382876508350.13 GB 0 0 1514574468

22:07

29-Дек-17

Зарубежные фильмы 2016-2019 (Новинки зарубежного кино) ·· Варкрафт / Warcraft (Дункан Джонс / Duncan Jones) [2016, США, фэнтези, боевик, приключения, BDRemux 1080p] Galfimbul 4434863704441.3 GB 0 0 1510678225

19:50

14-Ноя-17

Зарубежные фильмы 2016-2019 (Новинки зарубежного кино) ·· Варкрафт / Warcraft (Дункан Джонс / Duncan Jones) [2016, США, фэнтези, боевик, приключения, BDRip-AVC] Dub + Sub Rus Galfimbul 782027987746 MB 0 0 1504116092

21:01

30-Авг-17

Зарубежные фильмы 2016-2019 (Новинки зарубежного кино) ·· Варкрафт / Warcraft (Дункан Джонс / Duncan Jones) [2016, США, фэнтези, боевик, приключения, HDRip] Galfimbul 23528365542.19 GB 0 0 1498747822

17:50

29-Июн-17

Зарубежные фильмы до 2016 ·· Варкрафт / Warcraft (Дункан Джонс / Duncan Jones) [2016, США, фэнтези, боевик, приключения, BDRip 1080p] Dub (Пифагор) + MVO (FocusStudio) + 2х VO (Солодухин, Есарев) + AVO (Живов) + Original Eng + Sub Rus, Eng Galfimbul 2031678629418.92 GB 0 0 1485456684

21:51

26-Янв-17

Зарубежные фильмы 2016-2019 (Новинки зарубежного кино) ·· Варкрафт / Warcraft (Дункан Джонс / Duncan Jones) [2016, Китай, Канада, Япония, США, фэнтези, боевик, приключения, BDRip] MVO (FocusStudio) Galfimbul 23534100482.19 GB 0 0 1483442349

14:19

3-Янв-17

Зарубежные фильмы до 2016 ·· Варкрафт / Warcraft (Дункан Джонс / Duncan Jones) [2016, США, фэнтези, BDRemux 1080p] Dub(Пифагор) + MVO(FocusStudio) + 2х VO(Солодухин & Есарев) + AVO(Живов) + Original Eng + Sub Rus, Eng Galfimbul 4434863704441.3 GB 0 0 1482524836

23:27

23-Дек-16

Зарубежные фильмы до 2016 ·· Варкрафт / Warcraft (Дункан Джонс / Duncan Jones) [2016, Китай, Канада, Япония, США, Фэнтези, боевик, приключения, DVD5 (сжатый)] исх. R5, Dub + Sub Rus + Original Eng Galfimbul 46914805764.37 GB 0 0 1475644721

08:18

5-Окт-16

Трейлеры и дополнительные материалы ·· Варкрафт / Warcraft (Duncan Jones) [2016, Фэнтези | Боевик | Приключения, BDRip] дополнительные материалы Galfimbul 169340881161 MB 0 0 1475584694

15:38

4-Окт-16

Трейлеры и дополнительные материалы ·· Варкрафт / Warcraft (Duncan Jones) [2016, Фэнтези | Боевик | Приключения, BDRip] дополнительные материалы Galfimbul 6773839165 MB 0 0 1475446788

01:19

3-Окт-16

Зарубежные фильмы до 2016 ·· Варкрафт / Warcraft (Дункан Джонс / Duncan Jones) [2016, Китай, Канада, Япония, США, фэнтези, боевик, приключения, DVD9 + DVD5] R5 Dub + Sub Rus + Original Eng [2-ух дисковое издание] Galfimbul 100306472969.34 GB 0 0 1475433234

21:33

2-Окт-16

Зарубежные фильмы до 2016 ·· Варкрафт / Warcraft (Дункан Джонс / Duncan Jones) [2016, США, Китай, Канада, Япония, фэнтези, боевик, приключения, Blu-ray disc 1080p] [CEE] Dub + Sub Rus, Eng + Original Eng Galfimbul 4870953132845.36 GB 0 0 1475269743

00:09

1-Окт-16

Трейлеры и дополнительные материалы ·· Варкрафт / Warcraft (Дункан Джонс / Duncan Jones) [2016, Фэнтези | Боевик | Приключения, BDRip 1080p] дополнительные материалы Galfimbul 75963053957.07 GB 0 0 1474755866

01:24

25-Сен-16

Трейлеры и дополнительные материалы ·· Варкрафт / Warcraft (Дункан Джонс / Duncan Jones) [2016, Фэнтези | Боевик | Приключения, BDRip 720p] дополнительные материалы Galfimbul 38762261023.61 GB 0 0 1474541864

13:57

22-Сен-16

Зарубежные фильмы 2016-2019 (Новинки зарубежного кино) ·· Варкрафт / Warcraft (Дункан Джонс / Duncan Jones) [2016, США, фэнтези, боевик, приключения, BDRip-AVC] Dub + Original + Sub (rus, eng) Galfimbul 41103486433.83 GB 0 0 1474534768

11:59

22-Сен-16

Зарубежные фильмы 2016-2019 (Новинки зарубежного кино) ·· Варкрафт / Warcraft (Дункан Джонс / Duncan Jones) [2016, США, фэнтези, боевик, приключения, Blu-Ray 1080p] Лицензия Galfimbul 4870953132845.36 GB 0 0 1474503292

03:14

22-Сен-16

Зарубежные фильмы до 2016 ·· Варкрафт / Warcraft (Дункан Джонс / Duncan Jones) [2016, США, Китай, Канада, Япония, фэнтези, боевик, приключения, BDRip 1080p] Dub + Sub Rus, Eng + Original Eng Galfimbul 1300367841912.11 GB 0 0 1474489644

23:27

21-Сен-16

Зарубежные фильмы до 2016 ·· Варкрафт / Warcraft (Дункан Джонс / Duncan Jones) [2016, США, Китай, Канада, Япония, фэнтези, боевик, приключения, BDRip 720p] Dub + Sub Rus, Eng + Original Eng Galfimbul 68320870576.36 GB 0 0 1474487902

22:58

21-Сен-16

Еще никто не оставлял запись к записи скачать торрент Варкрафт Warcraft . Будь первым!

!Обратная связь