Скачать через торрент Выпускной Bacalaureat Фильм бесплатно в хорошем качестве torrent

Скачивайте на UnionPeer.org фильмы через торрент без регистрации. Новинки кино в хорошем качестве через торрент. На UnionPeer.org можно скачать через торрент фильмы 2014 и 2015 годов. Самые новые фильмы.

Скачать торрент Выпускной Bacalaureat бесплатно через .torrent фильм мультфильм сериал

Статистика раздачи
Размер:  33.63 GB   |    Зарегистрирован:  5 лет   |    .torrent скачан:  27 раз   |   
Раздают:  1  
 

Скачать Выпускной / Bacalaureat / Graduation (2016) BDRemux 1080р | Criterion Collection | L1 через torrent

 
 
Автор Сообщение

Galfimbul

avatar Galfimbul


Выпускной /Bacalaureat

Год выхода: 2016
Жанр: драма, криминал
Режиссер: Кристиан Мунджиу
В ролях: Адриан Титиени, Мария Драгуш, Рареш Андричи, Лиа Буньяр, Малина Мановичи, Влад Иванов, Валериу Андрюцэ, Петре Чеботару и др.

Описание: Фильм рассказывает о провинциальном враче, чья жизнь начинает рушиться, когда на его дочь нападают.



Страна: Румыния, Франция, Бельгия
Продолжительность: 02:07:41
Перевод: любительский (одноголосый закадровый) liosaa
Субтитры: русские, английские
Оригинальная аудиодорожка: румынский

Файл
Качество: BDRemux 1080р
Видео: MPEG-4 AVC, 1080p, 1920:1080 (16:9), 34454 kbps, 23.976 fps
Аудио 1: АС3, 6 ch, 48 kHz, 256 kbps liosaa
Аудио 2: DTS-HD MA, 6 ch, 48 kHz, 2991 kbps, 24-bit (DTS Core 6 ch, 48 kHz, 1509 kbps) Румынский
General
Unique ID : 270327265651717461117119359766355575080 (0xCB5F2337CE94B00106BADF10C5ED0128)
Complete name : Bacalaureat.2016.REMUX.mkv
Format : Matroska
Format version : Version 4 / Version 2
File size : 33.6 GiB
Duration : 2 h 7 min
Overall bit rate mode : Variable
Overall bit rate : 37.7 Mb/s
Movie name : Graduation.2016.1080p.BluRay.REMUX.AVC.DTS-HD.MA.5.1-EPSiLON
Encoded date : UTC 2019-02-22 01:42:04
Writing application : mkvmerge v20.0.0 ('I Am The Sun') 64-bit
Writing library : libebml v1.3.5 + libmatroska v1.4.8

Video
ID : 1
Format : AVC
Format/Info : Advanced Video Codec
Format profile : [email protected]
Format settings : CABAC / 4 Ref Frames
Format settings, CABAC : Yes
Format settings, RefFrames : 4 frames
Codec ID : V_MPEG4/ISO/AVC
Duration : 2 h 7 min
Bit rate mode : Variable
Bit rate : 34.5 Mb/s
Maximum bit rate : 37.0 Mb/s
Width : 1 920 pixels
Height : 1 080 pixels
Display aspect ratio : 16:9
Frame rate mode : Constant
Frame rate : 23.976 (24000/1001) FPS
Color space : YUV
Chroma subsampling : 4:2:0
Bit depth : 8 bits
Scan type : Progressive
Bits/(Pixel*Frame) : 0.693
Stream size : 30.7 GiB (91%)
Language : Romanian
Default : Yes
Forced : No

Audio #1
ID : 2
Format : AC-3
Format/Info : Audio Coding 3
Codec ID : A_AC3
Duration : 2 h 7 min
Bit rate mode : Constant
Bit rate : 256 kb/s
Channel(s) : 6 channels
Channel positions : Front: L C R, Side: L R, LFE
Sampling rate : 48.0 kHz
Frame rate : 31.250 FPS (1536 SPF)
Bit depth : 16 bits
Compression mode : Lossy
Stream size : 234 MiB (1%)
Title : VO liosaa
Language : Russian
Service kind : Complete Main
Default : Yes
Forced : No

Audio #2
ID : 3
Format : DTS
Format/Info : Digital Theater Systems
Format profile : MA / Core
Codec ID : A_DTS
Duration : 2 h 7 min
Bit rate mode : Variable / Constant
Bit rate : 2 991 kb/s / 1 509 kb/s
Channel(s) : 6 channels
Channel positions : Front: L C R, Side: L R, LFE
Sampling rate : 48.0 kHz
Frame rate : 93.750 FPS (512 SPF)
Bit depth : 24 bits
Compression mode : Lossless / Lossy
Stream size : 2.67 GiB (8%)
Language : Romanian
Default : No
Forced : No

Text #1
ID : 4
Format : UTF-8
Codec ID : S_TEXT/UTF8
Codec ID/Info : UTF-8 Plain Text
Duration : 2 h 5 min
Bit rate : 83 b/s
Count of elements : 1685
Stream size : 76.8 KiB (0%)
Title : liosaa
Language : Russian
Default : No
Forced : No
Text #2
ID : 5
Format : UTF-8
Codec ID : S_TEXT/UTF8
Codec ID/Info : UTF-8 Plain Text
Duration : 2 h 4 min
Bit rate : 49 b/s
Count of elements : 1668
Stream size : 45.0 KiB (0%)
Language : English
Default : No
Forced : No

Menu
00:00:00.000 : en:Suspicion
00:08:22.711 : en:Attack
00:11:18.720 : en:Report
00:17:48.484 : en:Home
00:25:01.291 : en:Test day
00:34:50.922 : en:Favors
00:50:00.456 : en:Cheat
00:59:18.388 : en:Bribe
01:03:31.933 : en:Decisions
01:11:47.053 : en:Threat
01:18:11.937 : en:Compromise
01:25:28.415 : en:Investigation
01:33:53.086 : en:Surveillance
01:43:56.730 : en:Suspects
01:50:17.152 : en:Search
01:56:53.965 : en:Responsibility
02:01:41.169 : en:Admission
Источник http://BlaTor.org

Внимание! AdBlock блокирует показ скриншотов, все вопросы к разработчикам )))
Трекер:  [ 22-Фев-2019 18:00 ]

  

Скачать .torrent

Размер .torrent файла 168 KB


Размер: 33.63 GB
Хэш (hash) релиза: f5bdd27c2f648f05ff84ed0b48ea5afabd0cfd9b
Подписка на обновления:

Еще никто не оставлял запись к записи скачать торрент Выпускной Bacalaureat . Будь первым!

!Обратная связь