Скачать через торрент Бамблби Bumblebee Фильм бесплатно в хорошем качестве torrent

Скачивайте на UnionPeer.org фильмы через торрент без регистрации. Новинки кино в хорошем качестве через торрент. На UnionPeer.org можно скачать через торрент фильмы 2014 и 2015 годов. Самые новые фильмы.

Скачать торрент Бамблби Bumblebee бесплатно через .torrent фильм мультфильм сериал

Статистика раздачи
Размер:  8.3 GB   |    Зарегистрирован:  1 месяц 4 дня   |    .torrent скачан:  150 раз   |   
Раздают:  1  
   
загрузка...
 
Автор Сообщение

Galfimbul

avatar Galfimbul


Бамблби / Bumblebee

Страна: США Китай
Производство: Paramount Pictures, Di Bonaventura Pictures, Tencent Pictures, Allspark Pictures
Год выпуска: 2018
Жанр: фантастика, боевик, приключения
Продолжительность: 01:53:21

Режиссер: Трэвис Найт / Travis Knight
В ролях: Дилан О’Брайен, Хейли Стайнфелд, Хорхе Лендеборг мл., Джон Сина, Джейсон Йен Дракер, Памела Адлон, Стивен Шнайдер, Рикардо Хойос

Описание: 1987 год. Скрываясь от преследования, Бамблби находит убежище на автомобильной свалке в калифорнийском городке, где живет Чарли. Девушке скоро исполнится 18, она стремится найти свое место в жизни. И именно она наталкивается на покореженного и сломленного Бамблби. Приведя его в чувство, Чарли моментально осознает: на ее пути оказался не простой желтый Фольксваген Жук…



Перевод: Профессиональный (многоголосый) | СВ Студия + Профессиональный (многоголосый) | HDrezka Studio
Субтитры: английские (full + SDH)
Качество: WEB-DL 1080p | AMAZON
Формат: MKV
Видео кодек: AVC
Аудио кодек: АС3 | Е-АС3
Видео: 1920x1080 (16:9), 23.976 fps, MPEG-4 AVC ~9 413 kbps avg
Аудио №1: 48.0 kHz, AC3 Dolby Digital, 2/0 (L,R) ch, ~192 kbps | RUS / СВ студия
Аудио №2: 48.0 kHz, AC3 Dolby Digital, 2/0 (L,R) ch, ~192 kbps | RUS / HDrezka Studio
Аудио №3: 48.0 kHz, Enhanced Audio Coding 3, 3/2 (L,C,R,l,r) + LFE ch, ~640 kbps | ENG
Формат субтитров: UTF-8 Plain Text

Дата премьеры (мир): 3 декабря 2018

<span style="color:Green;">

General
Unique ID : 176051498374003721223496346877151855739 (0x84724905F71EC0FA0AA6011405BEC47B)
Complete name : Bumblebee.2018.AMZN.webdL.108Op.werecut.PROD.mkv
Format : Matroska
Format version : Version 4
File size : 8.30 GiB
Duration : 1 h 53 min
Overall bit rate : 10.4 Mb/s
Movie name : Bumblebee 2018 OT werecut PROD.
Encoded date : UTC 2019-03-19 08:34:23
Writing application : mkvmerge v28.0.0 ('Voice In My Head') 64-bit
Writing library : libebml v1.3.6 + libmatroska v1.4.9

Video
ID : 1
Format : AVC
Format/Info : Advanced Video Codec
Format profile : High@L4
Format settings : CABAC / 4 Ref Frames
Format settings, CABAC : Yes
Format settings, ReFrames : 4 frames
Codec ID : V_MPEG4/ISO/AVC
Duration : 1 h 53 min
Bit rate mode : Constant
Bit rate : 9 413 kb/s
Nominal bit rate : 10 000 kb/s
Width : 1 920 pixels
Height : 1 080 pixels
Display aspect ratio : 16:9
Frame rate mode : Constant
Frame rate : 23.976 (24000/1001) FPS
Color space : YUV
Chroma subsampling : 4:2:0
Bit depth : 8 bits
Scan type : Progressive
Bits/(Pixel*Frame) : 0.189
Stream size : 7.49 GiB (90%)
Language : English
Default : Yes
Forced : No
Color range : Limited
Color primaries : BT.709
Transfer characteristics : BT.709
Matrix coefficients : BT.709

Audio #1
ID : 2
Format : AC-3
Format/Info : Audio Coding 3
Commercial name : Dolby Digital
Codec ID : A_AC3
Duration : 1 h 53 min
Bit rate mode : Constant
Bit rate : 192 kb/s
Channel(s) : 2 channels
Channel layout : L R
Sampling rate : 48.0 kHz
Frame rate : 31.250 FPS (1536 SPF)
Bit depth : 16 bits
Compression mode : Lossy
Stream size : 156 MiB (2%)
Title : СВ студия
Language : Russian
Service kind : Complete Main
Default : Yes
Forced : No

Audio #2
ID : 3
Format : AC-3
Format/Info : Audio Coding 3
Commercial name : Dolby Digital
Codec ID : A_AC3
Duration : 1 h 53 min
Bit rate mode : Constant
Bit rate : 192 kb/s
Channel(s) : 2 channels
Channel layout : L R
Sampling rate : 48.0 kHz
Frame rate : 31.250 FPS (1536 SPF)
Bit depth : 16 bits
Compression mode : Lossy
Stream size : 156 MiB (2%)
Title : HDREZKA STUDIO
Language : Russian
Service kind : Complete Main
Default : No
Forced : No

Audio #3
ID : 4
Format : E-AC-3
Format/Info : Enhanced AC-3
Commercial name : Dolby Digital Plus
Codec ID : A_EAC3
Duration : 1 h 53 min
Bit rate mode : Constant
Bit rate : 640 kb/s
Channel(s) : 6 channels
Channel layout : L R C LFE Ls Rs
Sampling rate : 48.0 kHz
Frame rate : 31.250 FPS (1536 SPF)
Compression mode : Lossy
Stream size : 521 MiB (6%)
Language : English
Service kind : Complete Main
Default : No
Forced : No

Text #1
ID : 5
Format : UTF-8
Codec ID : S_TEXT/UTF8
Codec ID/Info : UTF-8 Plain Text
Duration : 1 h 48 min
Bit rate : 45 b/s
Count of elements : 1270
Stream size : 36.4 KiB (0%)
Language : English
Default : No
Forced : No

Text #2
ID : 6
Format : UTF-8
Codec ID : S_TEXT/UTF8
Codec ID/Info : UTF-8 Plain Text
Duration : 1 h 48 min
Bit rate : 54 b/s
Count of elements : 1626
Stream size : 43.3 KiB (0%)
Title : SDH
Language : English
Default : No
Forced : No

Menu
00:00:00.000 : en:Chapter 1
00:03:29.000 : en:Chapter 2
00:12:14.000 : en:Chapter 3
00:16:54.000 : en:Chapter 4
00:21:00.000 : en:Chapter 5
00:26:40.000 : en:Chapter 6
00:32:30.000 : en:Chapter 7
00:39:40.000 : en:Chapter 8
00:45:15.000 : en:Chapter 9
00:50:39.000 : en:Chapter 10
00:54:12.000 : en:Chapter 11
01:01:06.000 : en:Chapter 12
01:06:22.000 : en:Chapter 13
01:11:34.000 : en:Chapter 14
01:16:02.000 : en:Chapter 15
01:21:31.000 : en:Chapter 16
01:25:02.000 : en:Chapter 17
01:30:09.000 : en:Chapter 18
01:36:40.000 : en:Chapter 19
01:43:45.000 : en:Chapter 20
01:49:35.000 : en:Chapter 21
Источник http://BlaTor.org

Трекер:  [ 19-Мар-2019 12:40 ]

  

Скачать .torrent

Размер .torrent файла 83 KB


Размер: 8.3 GB
Хэш (hash) релиза: 7fda6be74626a2b8d546130f6a0e1fba11e346a5
Подписка на обновления:

Торренты, похожие на Бамблби Bumblebee скачать торрент

Форум Название Автор Размер S L Добавлен
Зарубежные фильмы 2016-2018 (Новинки зарубежного кино) ·%· Бамблби / Bumblebee (2018) HDRip от MegaPeer | Лицензия Galfimbul 793725374757 MB 0 0 1555693211

20:00

19-Апр-19

Зарубежные фильмы 2016-2018 (Новинки зарубежного кино) ·%· Бамблби / Bumblebee (2018) Blu-Ray EUR 1080p | Лицензия Galfimbul 4883268280845.48 GB 0 0 1555681226

16:40

19-Апр-19

Зарубежные фильмы 2016-2018 (Новинки зарубежного кино) ·%· Бамблби / Bumblebee (2018) UHD BDRip 1080p | D Galfimbul 1390037691712.95 GB 0 0 1554587425

00:50

7-Апр-19

Зарубежные фильмы 2016-2018 (Новинки зарубежного кино) ·%· Бамблби / Bumblebee (2018) BDRip-AVC от OlLanDGroup | D, P | Лицензия Galfimbul 25018750232.33 GB 0 0 1553713822

22:10

27-Мар-19

Зарубежные фильмы 2016-2018 (Новинки зарубежного кино) ·%· Бамблби / Bumblebee (2018) BDRip 1080p от qqss44 & MegaPeer | Лицензия Galfimbul 93452978918.7 GB 0 0 1553701895

18:51

27-Мар-19

Зарубежные фильмы 2016-2018 (Новинки зарубежного кино) ·%· Бамблби / Bumblebee (2018) BDRip 720p от HELLYWOOD | Лицензия Galfimbul 61813645775.76 GB 0 0 1553662886

08:01

27-Мар-19

Зарубежные фильмы 2016-2018 (Новинки зарубежного кино) ·%· Бамблби / Bumblebee (2018) BDRip от ExKinoRay | Лицензия Galfimbul 15727292401.46 GB 0 0 1553619684

20:01

26-Мар-19

Зарубежные фильмы 2016-2018 (Новинки зарубежного кино) ·%· Бамблби / Bumblebee (2018) BDRip от ExKinoRay | Лицензия Galfimbul 23553485762.19 GB 0 0 1553619665

20:01

26-Мар-19

Зарубежные фильмы 2016-2018 (Новинки зарубежного кино) ·%· Бамблби / Bumblebee (2018) BDRip-AVC от HELLYWOOD | Лицензия Galfimbul 31306791222.92 GB 0 0 1553608861

17:01

26-Мар-19

Зарубежные фильмы 2016-2018 (Новинки зарубежного кино) ·%· Бамблби / Bumblebee (2018) BDRip от MegaPeer | D, P | Лицензия Galfimbul 23478596732.19 GB 0 0 1553599312

14:21

26-Мар-19

Зарубежные фильмы 2016-2018 (Новинки зарубежного кино) ·%· Бамблби / Bumblebee (2018) HDRip-AVC от ExKinoRay | Лицензия Galfimbul 782546107746 MB 0 0 1553433047

16:10

24-Мар-19

Зарубежные фильмы 2016-2018 (Новинки зарубежного кино) ·%· Бамблби / Bumblebee (2018) UHD BDRemux 2160p от ExKinoRay | 4K | HDR | Dolby Vision | Лицензия Galfimbul 5651883238352.64 GB 0 0 1553430035

15:20

24-Мар-19

Зарубежные фильмы 2016-2018 (Новинки зарубежного кино) ·%· Бамблби / Bumblebee (2018) UHD BDRip 1080p от селезень | D, P | Лицензия Galfimbul 1166853398810.87 GB 0 0 1553410808

10:00

24-Мар-19

Зарубежные фильмы 2016-2018 (Новинки зарубежного кино) ·%· Бамблби / Bumblebee (2018) BDRip 1080p от селезень | D, P | Лицензия Galfimbul 1734233754816.15 GB 0 0 1553382010

02:00

24-Мар-19

Зарубежные фильмы 2016-2018 (Новинки зарубежного кино) ·%· Бамблби / Bumblebee (2018) UHD BDRemux 2160p от ExKinoRay | 4K | HDR | Dolby Vision | Лицензия Galfimbul 4765211366544.38 GB 0 0 1553356221

18:50

23-Мар-19

Зарубежные фильмы 2016-2018 (Новинки зарубежного кино) ·%· Бамблби / Bumblebee (2018) HDRip от MegaPeer | Лицензия Galfimbul 15687062651.46 GB 0 0 1553355676

18:41

23-Мар-19

Зарубежные фильмы 2016-2018 (Новинки зарубежного кино) ·%· Бамблби / Bumblebee (2018) UHD BDRemux 2160p | 4K | HDR | D, P | Лицензия Galfimbul 4786308996544.58 GB 0 0 1553353220

18:00

23-Мар-19

Зарубежные фильмы 2016-2018 (Новинки зарубежного кино) ·%· Бамблби / Bumblebee (2018) BDRip 720p от селезень | D, P | Лицензия Galfimbul 88112806908.21 GB 0 0 1553352043

17:40

23-Мар-19

Зарубежные фильмы 2016-2018 (Новинки зарубежного кино) ·%· Бамблби / Bumblebee (2018) UHD Blu-Ray EUR 2160p | 4K | HDR | Dolby Vision | Лицензия Galfimbul 6569817478561.19 GB 0 0 1553349647

17:00

23-Мар-19

Зарубежные фильмы 2016-2018 (Новинки зарубежного кино) ·%· Бамблби / Bumblebee (2018) BDRip 1080p | P Galfimbul 85426055517.96 GB 0 0 1553339420

14:10

23-Мар-19

Еще никто не оставлял запись к записи скачать торрент Бамблби Bumblebee . Будь первым!

!Обратная связь