Скачать через торрент Домовой Фильм бесплатно в хорошем качестве torrent

Скачивайте на UnionPeer.org фильмы через торрент без регистрации. Новинки кино в хорошем качестве через торрент. На UnionPeer.org можно скачать через торрент фильмы 2014 и 2015 годов. Самые новые фильмы.

Скачать торрент Домовой бесплатно через .torrent фильм мультфильм сериал

Статистика раздачи
Размер:  1.46 GB   |    Зарегистрирован:  1 месяц 3 дня   |    .torrent скачан:  103 раза   |   
Раздают:  1  
   
загрузка...
 
Автор Сообщение

Galfimbul

avatar Galfimbul


Домовой
«Кто в доме хозяин?»


Год выпуска: 2019
Страна: Россия
Производство: TrioFilm, Медиа-Трест
Жанр: Семейный, фэнтези, комедия
Режиссёр: Евгений Бедарев
В ролях: Сергей Чирков, Екатерина Гусева, Александра Политик, Ольга Остроумова-Гутшмидт, Павел Деревянко, Юлия Сулес, Татьяна Орлова, Сергей Рубеко, Дмитрий Белоцерковский, Дмитрий Бедарев
Перевод: Оригинал | [iTunes]
Субтитры: Нет
Реклама: Отсутствует

Описание: В обычном и суетливом городе Москве есть необычный Дом, обросший сотнями тайн и загадок. В этом доме есть странная квартира, в которой еще надолго не задержался ни один жилец...И лишь тогда, когда в эту «милую» квартиру заезжает самостоятельная мама с очаровательной 8-летней дочерью Алиной, новые жильцы узнают, что жилплощадь их - непростая, а живет в ней самый настоящий Домовой. Только вот хранитель очага уже давно обиделся на весь род человеческий и сделает все вообразимые гадости, только бы остаться одному в злополучной квартире. Но всё меняется, когда Домовому бросает вызов злая колдунья...


Качество: WEB-DLRip-AVC | iTunes Version |
Продолжительность: 01:43:12

Формат: MKV
Видео кодек: MPEG-4 AVC
Аудио кодек: AC3
Видео: 1024x400 (2.56:1), 23,976 fps, x264 ~1 640 kbps avg, 0.167 bit/pixel
Аудио #1: 48 kHz, AC3 Dolby Digital, 3/2 (L,C,R,l,r) + LFE ch, ~384.00 kbps avg | RUS (iTunes)
Дата премьеры (мир):
Дата премьеры (РФ): 11 апреля 2019, «Каропрокат»
Цифровой релиз:
Общее
Уникальный идентификатор : 128862630740536537783562309298924663070 (0x60F20A388FEFA0A9A27B609E30C9B11E)
Полное имя : F:OlLanDGroupDomovoy.2019.WEB-DLRip(AVC).OlLanDGroup.mkv
Формат : Matroska
Версия формата : Version 4 / Version 2
Размер файла : 1,46 Гбайт
Продолжительность : 1 ч. 43 м.
Общий поток : 2024 Кбит/сек
Название фильма : Domovoy.2019 #TorpedoUK#
Дата кодирования : UTC 2019-05-22 11:57:44
Программа кодирования : mkvmerge v29.0.0 ('Like It Or Not') 64-bit
Библиотека кодирования : libebml v1.3.6 + libmatroska v1.4.9

Видео
Идентификатор : 1
Формат : AVC
Формат/Информация : Advanced Video Codec
Профиль формата : High@L4.1
Параметр CABAC формата : Да
Параметр ReFrames формата : 10 кадров
Идентификатор кодека : V_MPEG4/ISO/AVC
Продолжительность : 1 ч. 43 м.
Битрейт : 1640 Кбит/сек
Ширина : 1024 пикселя
Высота : 400 пикселей
Соотношение сторон : 2,560
Режим частоты кадров : Постоянный
Частота кадров : 23,976 (24000/1001) кадра/сек
Цветовое пространство : YUV
Субдискретизация насыщенности : 4:2:0
Битовая глубина : 8 бит
Тип развёртки : Прогрессивная
Бит/(Пиксели*Кадры) : 0.167
Размер потока : 1,18 Гбайт (81%)
Библиотека кодирования : x264 core 146 r2538 121396c
Настройки программы : cabac=1 / ref=10 / deblock=1:-2:-3 / analyse=0x3:0x113 / me=umh / subme=11 / psy=1 / psy_rd=0.95:0.07 / mixed_ref=1 / me_range=48 / chroma_me=1 / trellis=2 / 8x8dct=1 / cqm=0 / deadzone=21,11 / fast_pskip=1 / chroma_qp_offset=-3 / threads=6 / lookahead_threads=1 / sliced_threads=0 / nr=0 / decimate=1 / interlaced=0 / bluray_compat=0 / constrained_intra=0 / bframes=11 / b_pyramid=2 / b_adapt=2 / b_bias=0 / direct=3 / weightb=1 / open_gop=0 / weightp=2 / keyint=240 / keyint_min=23 / scenecut=40 / intra_refresh=0 / rc_lookahead=40 / rc=2pass / mbtree=0 / bitrate=1640 / ratetol=1.0 / qcomp=0.60 / qpmin=0 / qpmax=69 / qpstep=4 / cplxblur=20.0 / qblur=0.5 / vbv_maxrate=50000 / vbv_bufsize=62500 / nal_hrd=none / filler=0 / ip_ratio=1.40 / pb_ratio=1.30 / aq=1:1.00
Default : Да
Forced : Нет

Аудио
Идентификатор : 2
Формат : AC-3
Формат/Информация : Audio Coding 3
Расширение режима : CM (complete main)
Параметр Endianness формата : Big
Идентификатор кодека : A_AC3
Продолжительность : 1 ч. 43 м.
Вид битрейта : Постоянный
Битрейт : 384 Кбит/сек
Каналы : 6 каналов
Расположение каналов : Front: L C R, Side: L R, LFE
Частота : 48,0 КГц
Частота кадров : 31,250 кадров/сек (1536 spf)
Битовая глубина : 16 бит
Метод сжатия : С потерями
Размер потока : 283 Мбайт (19%)
Заголовок : iTunes
Язык : Russian
Default : Да
Forced : Нет

Меню
00:00:00.000 : en:1
00:06:09.000 : en:2
00:16:14.000 : en:3
00:26:05.000 : en:4
00:38:53.000 : en:5
00:47:08.000 : en:6
00:59:20.000 : en:7
01:09:14.000 : en:8
01:19:49.000 : en:9
01:31:03.000 : en:10
01:38:01.000 : en:11
Источник http://BlaTor.org

Трекер:  [ 22-Май-2019 15:30 ]

  

Скачать .torrent

Размер .torrent файла 15 KB


Размер: 1.46 GB
Хэш (hash) релиза: dd4ac6cd52a7fb141b9e04f6bdbe1b0237839a9d
Подписка на обновления:

Торренты, похожие на Домовой скачать торрент

Форум Название Автор Размер S L Добавлен
Российские фильмы 2016-2018 (Новинки русского кино) ·%· Домовой (2019) WEB-DLRip от GeneralFilm | iTunes Galfimbul 15621795841.45 GB 0 0 1558785031

14:50

25-Май-19

Российские фильмы 2016-2018 (Новинки русского кино) ·%· Домовой (2019) WEB-DLRip от GeneralFilm | iTunes Galfimbul 782721024746 MB 0 0 1558779023

13:10

25-Май-19

Российские фильмы 2016-2018 (Новинки русского кино) ·%· Домовой (2019) WEB-DLRip от Scarabey | iTunes Galfimbul 15533240321.45 GB 0 0 1558545066

20:11

22-Май-19

Российские фильмы 2016-2018 (Новинки русского кино) ·%· Домовой (2019) WEB-DLRip | КПК | iTunes Galfimbul 410263513391 MB 0 0 1558525815

14:50

22-Май-19

Российские фильмы 2016-2018 (Новинки русского кино) ·%· Домовой (2019) WEB-DLRip-AVC | iTunes Galfimbul 779897331744 MB 0 0 1558521023

13:30

22-Май-19

Российские фильмы 2016-2018 (Новинки русского кино) ·%· Домовой (2019) WEB-DLRip от Portablius | iTunes Galfimbul 782802944747 MB 0 0 1558419012

09:10

21-Май-19

Российские фильмы 2016-2018 (Новинки русского кино) ·%· Домовой (2019) WEB-DLRip от MegaPeer | iTunes Galfimbul 15681392641.46 GB 0 0 1558385415

23:50

20-Май-19

Российские фильмы 2016-2018 (Новинки русского кино) ·%· Домовой (2019) WEB-DL 1080p | iTunes Galfimbul 37991537683.54 GB 3 0 1558377014

21:30

20-Май-19

Российские фильмы 2016-2018 (Новинки русского кино) ·%· Домовой (2019) WEB-DL 720p | iTunes Galfimbul 34183799513.18 GB 2 0 1558374616

20:50

20-Май-19

Российские сериалы ·· Домовой / Серии: 1-2 из 2 (Игорь Шевченко) [2017, комедия, WEBRip] Galfimbul 11545292801.08 GB 0 0 1506943675

14:27

2-Окт-17

Российские сериалы ·· Домовой / Серии: 1-2 из 2 (Игорь Шевченко) [2017, комедия, WEBRip 1080p] Galfimbul 28790934792.68 GB 0 0 1506943667

14:27

2-Окт-17

Зарубежные фильмы до 2016 ·· Запрещено для детей. Трилогия (Домовой + Ликкефантен + Оггиногген / Forbudt for børn (Buldermanden + Lykkefanten + Ogginoggen) (Йеспер В. Нильсен / Jesper W. Nielsen) [1996, Дания, короткий метр, DVD9 (Custom)] VO + Sub Rus + Original Dan Galfimbul 80149872647.46 GB 0 0 1497029785

20:36

9-Июн-17

Мультфильмы до 2016 ·· Домовой / Kingikratt (Аарне Ахи / Aarne Ahi) [1991, мультфильм, VHSRip] Galfimbul 10039705696 MB 0 0 1419661318

09:21

27-Дек-14

Мультфильмы до 2016 ·· Домовой и хозяйка (Майя Бузинова, Иосиф Доукша) [1988 г., мультфильм, DVB] Galfimbul 238657536228 MB 0 0 1377570773

05:32

27-Авг-13

Российские фильмы до 2016 ·· Домовой (Карен Оганесян) [2008 г., Триллер, DVDRip] Bot 15656427521.46 GB 0 0 1287688855

22:20

21-Окт-10

Российские фильмы до 2016 ·· Домовой (Карен Оганесян) [2008 г., Триллер, DVDRip] MaTaDoRe 780625920744 MB 0 0 1287688668

22:17

21-Окт-10

Еще никто не оставлял запись к записи скачать торрент Домовой . Будь первым!

!Обратная связь