Скачать через торрент Потерянное звено Missing Link Фильм бесплатно в хорошем качестве torrent

Скачивайте на UnionPeer.org фильмы через торрент без регистрации. Новинки кино в хорошем качестве через торрент. На UnionPeer.org можно скачать через торрент фильмы 2014 и 2015 годов. Самые новые фильмы.

Скачать торрент Потерянное звено Missing Link бесплатно через .torrent фильм мультфильм сериал

Статистика раздачи
Размер:  1.59 GB   |    Зарегистрирован:  29 дней   |    .torrent скачан:  85 раз   |   
Раздают:  1  
   
загрузка...
 
Автор Сообщение

Galfimbul

avatar Galfimbul


Потерянное звено / Missing Link
«Очень большое мохнатое доброе научное открытие»


Год выпуска: 2019
Страна: США, Канада
Производство: Laika Entertainment
Жанр: Мультфильм, фэнтези, комедия, приключения, семейный
Режиссёр: Крис Батлер
В ролях: Хью Джекман, Дэвид Уоллиамс, Стивен Фрай, Мэтт Лукас, Зак Галифианакис, Тимоти Олифант, Зои Салдана, Эмма Томпсон, Амрита Ачария, Чинг Валдес-Аран
Перевод: Профессиональный многоголосый | [HDRezka Studio]
Субтитры: Английские (форс., полные)
Реклама: Отсутствует

Описание: Бесстрашный натуралист и исследователь Лайонел Фрост поставил перед собой задачу рассказать миру о существовании разных созданий, о которых говорят только в легендах. Его новым открытием становится Линк, так называемое «недостающее звено», связывающее человечество с его предками по эволюционной лестнице.


Качество: BDRip-AVC | BDRemux | |Missing.Link.2019.1080p.BluRay.REMUX.AVC.DTS-HD.MA.TrueHD.7.1.Atmos-FGT|
Продолжительность: 01:34:26

Формат: MKV
Видео кодек: MPEG-4 AVC
Аудио кодек: AC3
Видео: 1024x426 (2.40:1), 23,976 fps, x264 ~1 775 kbps avg, 0.170 bit/pixel
Аудио #1: 48 kHz, AC3 Dolby Digital, 2 (L,R) ch, ~192.00 kbps avg | RUS (HDRezka Studio)
Аудио #2: 48 kHz, AC3 Dolby Digital, 3/2 (L,C,R,l,r) + LFE ch, ~448.00 kbps avg | ENG
Дата премьеры (мир): 5 апреля 2019
Дата премьеры (РФ): 4 апреля 2019, «WDSSPR»
Цифровой релиз:
Общее
Уникальный идентификатор : 272751600389874110129359989108685450028 (0xCD320C262502B03B095EDBED1658AB2C)
Полное имя : F:OlLanDGroupMissing.Link.2019.BDRip(AVC).OlLanDGroup.mkv
Формат : Matroska
Версия формата : Version 4 / Version 2
Размер файла : 1,59 Гбайт
Продолжительность : 1 ч. 34 м.
Общий поток : 2417 Кбит/сек
Название фильма : Missing.Link.2019 #TorpedoUK#
Дата кодирования : UTC 2019-07-20 16:25:43
Программа кодирования : mkvmerge v29.0.0 ('Like It Or Not') 64-bit
Библиотека кодирования : libebml v1.3.6 + libmatroska v1.4.9

Видео
Идентификатор : 1
Формат : AVC
Формат/Информация : Advanced Video Codec
Профиль формата : High@L4.1
Параметр CABAC формата : Да
Параметр ReFrames формата : 10 кадров
Идентификатор кодека : V_MPEG4/ISO/AVC
Продолжительность : 1 ч. 34 м.
Битрейт : 1775 Кбит/сек
Ширина : 1024 пикселя
Высота : 426 пикселей
Соотношение сторон : 2,40:1
Режим частоты кадров : Постоянный
Частота кадров : 23,976 (24000/1001) кадра/сек
Цветовое пространство : YUV
Субдискретизация насыщенности : 4:2:0
Битовая глубина : 8 бит
Тип развёртки : Прогрессивная
Бит/(Пиксели*Кадры) : 0.170
Размер потока : 1,17 Гбайт (73%)
Библиотека кодирования : x264 core 146 r2538 121396c
Настройки программы : cabac=1 / ref=10 / deblock=1:-3:-3 / analyse=0x3:0x113 / me=umh / subme=11 / psy=1 / psy_rd=1.00:0.03 / mixed_ref=1 / me_range=48 / chroma_me=1 / trellis=2 / 8x8dct=1 / cqm=0 / deadzone=21,11 / fast_pskip=1 / chroma_qp_offset=-3 / threads=6 / lookahead_threads=1 / sliced_threads=0 / nr=0 / decimate=1 / interlaced=0 / bluray_compat=0 / constrained_intra=0 / bframes=11 / b_pyramid=2 / b_adapt=2 / b_bias=0 / direct=3 / weightb=1 / open_gop=0 / weightp=2 / keyint=240 / keyint_min=23 / scenecut=40 / intra_refresh=0 / rc_lookahead=40 / rc=2pass / mbtree=0 / bitrate=1775 / ratetol=1.0 / qcomp=0.60 / qpmin=0 / qpmax=69 / qpstep=4 / cplxblur=20.0 / qblur=0.5 / vbv_maxrate=50000 / vbv_bufsize=62500 / nal_hrd=none / filler=0 / ip_ratio=1.40 / pb_ratio=1.30 / aq=1:1.00
Язык : English
Default : Да
Forced : Нет

Аудио #1
Идентификатор : 2
Формат : AC-3
Формат/Информация : Audio Coding 3
Расширение режима : CM (complete main)
Параметр Endianness формата : Big
Идентификатор кодека : A_AC3
Продолжительность : 1 ч. 34 м.
Вид битрейта : Постоянный
Битрейт : 192 Кбит/сек
Каналы : 2 канала
Расположение каналов : Front: L R
Частота : 48,0 КГц
Частота кадров : 31,250 кадров/сек (1536 spf)
Битовая глубина : 16 бит
Метод сжатия : С потерями
Размер потока : 130 Мбайт (8%)
Заголовок : MVO [HDRezka Studio]
Язык : Russian
Default : Да
Forced : Нет

Аудио #2
Идентификатор : 3
Формат : AC-3
Формат/Информация : Audio Coding 3
Расширение режима : CM (complete main)
Параметр Endianness формата : Big
Идентификатор кодека : A_AC3
Продолжительность : 1 ч. 34 м.
Вид битрейта : Постоянный
Битрейт : 448 Кбит/сек
Каналы : 6 каналов
Расположение каналов : Front: L C R, Side: L R, LFE
Частота : 48,0 КГц
Частота кадров : 31,250 кадров/сек (1536 spf)
Битовая глубина : 16 бит
Метод сжатия : С потерями
Размер потока : 303 Мбайт (19%)
Заголовок : [Original]
Язык : English
Default : Нет
Forced : Нет

Текст #1
Идентификатор : 4
Формат : UTF-8
Идентификатор кодека : S_TEXT/UTF8
Идентификатор кодека/Информация : UTF-8 Plain Text
Продолжительность : 8 с. 49 мс.
Битрейт : 140 бит/сек
Count of elements : 5
Размер потока : 141 байт (0%)
Заголовок : Forced
Язык : English
Default : Нет
Forced : Нет

Текст #2
Идентификатор : 5
Формат : UTF-8
Идентификатор кодека : S_TEXT/UTF8
Идентификатор кодека/Информация : UTF-8 Plain Text
Продолжительность : 1 ч. 34 м.
Битрейт : 65 бит/сек
Count of elements : 1615
Размер потока : 45,2 Кбайт (0%)
Заголовок : Full
Язык : English
Default : Нет
Forced : Нет

Меню
00:00:00.000 : en:Chapter 01
00:05:12.520 : en:Chapter 02
00:08:53.616 : en:Chapter 03
00:12:29.206 : en:Chapter 04
00:15:35.851 : en:Chapter 05
00:20:18.550 : en:Chapter 06
00:24:26.840 : en:Chapter 07
00:29:55.126 : en:Chapter 08
00:33:14.659 : en:Chapter 09
00:36:40.948 : en:Chapter 10
00:40:33.389 : en:Chapter 11
00:43:45.164 : en:Chapter 12
00:47:24.299 : en:Chapter 13
00:52:50.876 : en:Chapter 14
00:55:14.477 : en:Chapter 15
00:58:51.903 : en:Chapter 16
00:59:59.721 : en:Chapter 17
01:02:54.729 : en:Chapter 18
01:05:15.494 : en:Chapter 19
01:08:17.176 : en:Chapter 20
01:11:00.339 : en:Chapter 21
01:13:20.437 : en:Chapter 22
01:21:51.197 : en:Chapter 23
01:24:48.625 : en:Chapter 24
Источник http://BlaTor.org

Трекер:  [ 20-Июл-2019 19:50 ]

  

Скачать .torrent

Размер .torrent файла 16 KB


Размер: 1.59 GB
Хэш (hash) релиза: 0f2d9880f1c6ed83c4fb9398ea68d3e5dc4b62bd
Подписка на обновления:

Еще никто не оставлял запись к записи скачать торрент Потерянное звено Missing Link . Будь первым!

!Обратная связь