Скачать через торрент Джон Уик 3 John Wick: Chapter 3 - Parabellum Фильм бесплатно в хорошем качестве torrent

Скачивайте на UnionPeer.org фильмы через торрент без регистрации. Новинки кино в хорошем качестве через торрент. На UnionPeer.org можно скачать через торрент фильмы 2014 и 2015 годов. Самые новые фильмы.

Скачать торрент Джон Уик 3 John Wick: Chapter 3 - Parabellum бесплатно через .torrent фильм мультфильм сериал

Статистика раздачи
Размер:  29.41 GB   |    Зарегистрирован:  14 дней   |    .torrent скачан:  388 раз   |   
Раздают:  8   Качают:  1  
   
загрузка...
 
Автор Сообщение

Galfimbul

avatar Galfimbul


Джон Уик 3 /John Wick: Chapter 3 - Parabellum

Год выхода: 2019
Жанр: Боевик, триллер, криминал
Режиссер: Чад Стахелски
В ролях: Киану Ривз, Холли Берри, Иэн МакШейн, Лоуренс Фишборн, Марк Дакаскос, Азия Диллон, Лэнс Реддик, Тобиаш Сигал, Анжелика Хьюстон, Саид Тагмауи

О фильме:
Суперкиллер Джон Уик после нарушения кодекса тайной гильдии ассасинов получает статус изгоя — экскомьюникадо. За его голову назначена цена в 14 миллионов долларов, и армия самых жестоких профессиональных убийц со всего мира открывает на него кровавую охоту.



Страна: США
Студия: Summit Entertainment, 87Eleven, Lionsgate
Продолжительность: 02:10:45
Перевод: Дублированный, профессиональный (многоголосый закадровый), авторский (одноголосый закадровый)

Файл
Кодек: H.264
Качество: BDRemux 1080p
Видео: AVC/H.264, 1920x1080, (16:9), 26.3 Mbps, 23.976 fps
Аудио 1: AC3, 6 ch, 384 Kbps - Русский (DUB, iTunes)
Аудио 2: AC3, 2 ch, 192 Kbps - Русский (MVO, HDRezka Studio)
Аудио 3: AC3, 6 ch, 640 Kbps - Русский (AVO, Д. Есарев)
Аудио 4: TrueHD+Atmos, 8 ch, 4012 Kbps - Английский
Аудио 5: AC3, 6 ch, 640 Kbps - Английский
Субтитры: Русские (Forced, full x2), английские (full, SDH, SDH-Colored)

Скриншоты:
General
Unique ID : 249084595208936728208857536260841805404 (0xBB63F2B40CD339A9934B34F491BE165C)
Complete name : F:John.Wick.Chapter.3.Parabellum.2019.USA.BDRemux.1080p.NNMClub.mkv
Format : Matroska
Format version : Version 4
File size : 29.4 GiB
Duration : 2 h 10 min
Overall bit rate mode : Variable
Overall bit rate : 32.2 Mb/s
Movie name : John Wick: Chapter 3 - Parabellum (2019) | NNMClub
Encoded date : UTC 2019-09-04 12:54:06
Writing application : mkvmerge v37.0.0 ('Leave It') 64-bit
Writing library : libebml v1.3.9 + libmatroska v1.5.2
Cover : Yes
Attachments : Cover.jpg

Video
ID : 1
Format : AVC
Format/Info : Advanced Video Codec
Format profile : High@L4.1
Format settings : CABAC / 4 Ref Frames
Format settings, CABAC : Yes
Format settings, Reference : 4 frames
Codec ID : V_MPEG4/ISO/AVC
Duration : 2 h 10 min
Bit rate mode : Variable
Bit rate : 26.3 Mb/s
Maximum bit rate : 37.0 Mb/s
Width : 1 920 pixels
Height : 1 080 pixels
Display aspect ratio : 16:9
Frame rate mode : Constant
Frame rate : 23.976 (24000/1001) FPS
Color space : YUV
Chroma subsampling : 4:2:0
Bit depth : 8 bits
Scan type : Progressive
Bits/(Pixel*Frame) : 0.528
Stream size : 24.0 GiB (82%)
Title : John Wick: Chapter 3 - Parabellum (2019)
Language : English
Default : Yes
Forced : No

Audio #1
ID : 2
Format : AC-3
Format/Info : Audio Coding 3
Commercial name : Dolby Digital
Codec ID : A_AC3
Duration : 2 h 10 min
Bit rate mode : Constant
Bit rate : 384 kb/s
Channel(s) : 6 channels
Channel layout : L R C LFE Ls Rs
Sampling rate : 48.0 kHz
Frame rate : 31.250 FPS (1536 SPF)
Bit depth : 16 bits
Compression mode : Lossy
Stream size : 359 MiB (1%)
Title : DUB | iTunes
Language : Russian
Service kind : Complete Main
Default : Yes
Forced : No

Audio #2
ID : 3
Format : AC-3
Format/Info : Audio Coding 3
Commercial name : Dolby Digital
Codec ID : A_AC3
Duration : 2 h 10 min
Bit rate mode : Constant
Bit rate : 192 kb/s
Channel(s) : 2 channels
Channel layout : L R
Sampling rate : 48.0 kHz
Frame rate : 31.250 FPS (1536 SPF)
Bit depth : 16 bits
Compression mode : Lossy
Stream size : 180 MiB (1%)
Title : MVO | HDRezka Studio
Language : Russian
Service kind : Complete Main
Default : No
Forced : No

Audio #3
ID : 4
Format : AC-3
Format/Info : Audio Coding 3
Commercial name : Dolby Digital
Codec ID : A_AC3
Duration : 2 h 10 min
Bit rate mode : Constant
Bit rate : 640 kb/s
Channel(s) : 6 channels
Channel layout : L R C LFE Ls Rs
Sampling rate : 48.0 kHz
Frame rate : 31.250 FPS (1536 SPF)
Bit depth : 16 bits
Compression mode : Lossy
Stream size : 599 MiB (2%)
Title : AVO | Д. Есарев
Language : Russian
Service kind : Complete Main
Default : No
Forced : No

Audio #4
ID : 5
Format : MLP FBA 16-ch
Format/Info : Meridian Lossless Packing FBA with 16-channel presentation
Commercial name : Dolby TrueHD with Dolby Atmos
Codec ID : A_TRUEHD
Duration : 2 h 10 min
Bit rate mode : Variable
Bit rate : 4 012 kb/s
Maximum bit rate : 6 327 kb/s
Channel(s) : 8 channels
Channel layout : L R C LFE Ls Rs Lb Rb
Sampling rate : 48.0 kHz
Frame rate : 1 200.000 FPS (40 SPF)
Compression mode : Lossless
Stream size : 3.66 GiB (12%)
Title : Original
Language : English
Default : No
Forced : No
Number of dynamic objects : 15
Bed channel count : 1 channel
Bed channel configuration : LFE

Audio #5
ID : 6
Format : AC-3
Format/Info : Audio Coding 3
Commercial name : Dolby Digital
Codec ID : A_AC3
Duration : 2 h 10 min
Bit rate mode : Constant
Bit rate : 640 kb/s
Channel(s) : 6 channels
Channel layout : L R C LFE Ls Rs
Sampling rate : 48.0 kHz
Frame rate : 31.250 FPS (1536 SPF)
Bit depth : 16 bits
Compression mode : Lossy
Stream size : 599 MiB (2%)
Title : Original
Language : English
Service kind : Complete Main
Default : No
Forced : No

Text #1
ID : 7
Format : UTF-8
Codec ID : S_TEXT/UTF8
Codec ID/Info : UTF-8 Plain Text
Duration : 2 h 2 min
Bit rate : 1 b/s
Count of elements : 32
Stream size : 1.03 KiB (0%)
Title : Forced
Language : Russian
Default : Yes
Forced : No

Text #2
ID : 8
Format : UTF-8
Codec ID : S_TEXT/UTF8
Codec ID/Info : UTF-8 Plain Text
Duration : 2 h 1 min
Bit rate : 38 b/s
Count of elements : 761
Stream size : 34.6 KiB (0%)
Title : Full (Focs)
Language : Russian
Default : No
Forced : No

Text #3
ID : 9
Format : UTF-8
Codec ID : S_TEXT/UTF8
Codec ID/Info : UTF-8 Plain Text
Duration : 2 h 2 min
Bit rate : 38 b/s
Count of elements : 797
Stream size : 34.6 KiB (0%)
Title : Full (Enigma)
Language : Russian
Default : No
Forced : No

Text #4
ID : 10
Format : UTF-8
Codec ID : S_TEXT/UTF8
Codec ID/Info : UTF-8 Plain Text
Duration : 1 h 59 min
Bit rate : 24 b/s
Count of elements : 764
Stream size : 21.3 KiB (0%)
Title : Full
Language : English
Default : No
Forced : No

Text #5
ID : 11
Format : UTF-8
Codec ID : S_TEXT/UTF8
Codec ID/Info : UTF-8 Plain Text
Duration : 2 h 0 min
Bit rate : 32 b/s
Count of elements : 1157
Stream size : 28.5 KiB (0%)
Title : SDH
Language : English
Default : No
Forced : No

Text #6
ID : 12
Format : UTF-8
Codec ID : S_TEXT/UTF8
Codec ID/Info : UTF-8 Plain Text
Duration : 2 h 0 min
Bit rate : 51 b/s
Count of elements : 1157
Stream size : 45.5 KiB (0%)
Title : SDH-Colored
Language : English
Default : No
Forced : No

Menu
00:00:00.000 : en:Chapter 01
00:08:46.860 : en:Chapter 02
00:14:06.763 : en:Chapter 03
00:22:40.401 : en:Chapter 04
00:31:26.301 : en:Chapter 05
00:37:51.311 : en:Chapter 06
00:47:43.319 : en:Chapter 07
00:57:09.176 : en:Chapter 08
01:02:56.439 : en:Chapter 09
01:14:27.671 : en:Chapter 10
01:20:36.665 : en:Chapter 11
01:28:48.365 : en:Chapter 12
01:33:51.793 : en:Chapter 13
01:41:31.794 : en:Chapter 14
01:53:44.651 : en:Chapter 15
01:59:51.434 : en:Chapter 16
Источник http://BlaTor.org

Трекер:  [ 05-Сен-2019 08:20 ]

  

Скачать .torrent

Размер .torrent файла 147 KB


Размер: 29.41 GB
Хэш (hash) релиза: b64a4d5563cf5dc037789d9e664ebb90629ceb65
Подписка на обновления:

Еще никто не оставлял запись к записи скачать торрент Джон Уик 3 John Wick: Chapter 3 - Parabellum . Будь первым!

!Обратная связь