Скачать через торрент Аладдин Aladdin Фильм бесплатно в хорошем качестве torrent

Скачивайте на UnionPeer.org фильмы через торрент без регистрации. Новинки кино в хорошем качестве через торрент. На UnionPeer.org можно скачать через торрент фильмы 2014 и 2015 годов. Самые новые фильмы.

Скачать торрент Аладдин Aladdin бесплатно через .torrent фильм мультфильм сериал

Статистика раздачи
Размер:  6.34 GB   |    Зарегистрирован:  8 месяцев   |    .torrent скачан:  56 раз   |   
Раздают:  2  
 

Скачать Аладдин / Aladdin (2019) Hybrid 1080p | D, P | IMAX через torrent

 
Timeweb Many GEOs Sprinthost
загрузка...
 
Автор Сообщение

Galfimbul ghost

avatar Galfimbul ghost


Аладдин /Aladdin

Год выхода: 2019
Жанр: Мюзикл, фэнтези, мелодрама, комедия, приключения, семейный
Режиссер: Гай Ричи / Guy Ritchie
В ролях: Мена Массуд, Наоми Скотт, Уилл Смит, Билли Магнуссен, Алан Тьюдик, Назим Педрад, Марван Кензари, Нуман Аджар, Фрэнк Уэлкер, Навид Негабан, Джордан А. Нэш, Талия Блэр, Обри Лин

О фильме:
Молодой воришка по имени Аладдин хочет стать принцем, чтобы жениться на принцессе Жасмин. Тем временем визирь Аграбы Джафар намеревается захватить власть над Аграбой, а для этого он стремится заполучить волшебную лампу, хранящуюся в пещере чудес, доступ к которой разрешен лишь тому, кого называют «алмаз неограненный», и этим человеком является не кто иной, как сам Аладдин.



Страна: Великобритания, США
Студия: Walt Disney Pictures, Lin Pictures, Rideback
Продолжительность: 02:07:58
Перевод: Профессиональный (дублированный) Лицензия, Профессиональный (многоголосый, закадровый) HDRezka Studio

Файл
Качество: Hybrid 1080p | IMAX
Формат: MKV
Видео: 1920x1080, 23.976 fps, MPEG-4 AVC, 5816 kbps
Аудио 1: Russian: 48 kHz, AC3, 6 ch, ~640 kbps avg - Дубляж
Аудио 2: Russian: 48 kHz, AC3, 2 ch, ~192 kbps avg - HDRezka Studio
Аудио 3: English: 48 kHz, AC3, 6 ch, ~448 kbps avg
Субтитры: Русские (full), английские
General
Unique ID : 232208611264430223912535496390601023934 (0xAEB1C07483C7465A99BE212CFBE721BE)
Complete name : D:Aladdin (2019) IMAX.mkv
Format : Matroska
Format version : Version 4
File size : 6.34 GiB
Duration : 2 h 7 min
Overall bit rate : 7 098 kb/s
Encoded date : UTC 2019-10-15 16:17:00
Writing application : mkvmerge v8.3.0 ('Over the Horizon') 32bit
Writing library : libebml v1.3.1 + libmatroska v1.4.2

Video
ID : 1
Format : AVC
Format/Info : Advanced Video Codec
Format profile : High@L4
Format settings : CABAC / 2 Ref Frames
Format settings, CABAC : Yes
Format settings, Reference : 2 frames
Codec ID : V_MPEG4/ISO/AVC
Duration : 2 h 7 min
Bit rate : 5 816 kb/s
Width : 1 920 pixels
Height : 1 080 pixels
Display aspect ratio : 16:9
Frame rate mode : Constant
Frame rate : 23.976 (24000/1001) FPS
Color space : YUV
Chroma subsampling : 4:2:0
Bit depth : 8 bits
Scan type : Progressive
Bits/(Pixel*Frame) : 0.117
Stream size : 5.20 GiB (82%)
Writing library : x264 core 155 r2901 7d0ff22
Default : Yes
Forced : No
Color range : Limited
Color primaries : BT.709
Transfer characteristics : BT.709
Matrix coefficients : BT.709

Audio #1
ID : 2
Format : AC-3
Format/Info : Audio Coding 3
Commercial name : Dolby Digital
Codec ID : A_AC3
Duration : 2 h 7 min
Bit rate mode : Constant
Bit rate : 640 kb/s
Channel(s) : 6 channels
Channel layout : L R C LFE Ls Rs
Sampling rate : 48.0 kHz
Frame rate : 31.250 FPS (1536 SPF)
Bit depth : 16 bits
Compression mode : Lossy
Stream size : 586 MiB (9%)
Title : DUB
Language : Russian
Service kind : Complete Main
Default : Yes
Forced : No

Audio #2
ID : 3
Format : AC-3
Format/Info : Audio Coding 3
Commercial name : Dolby Digital
Codec ID : A_AC3
Duration : 2 h 7 min
Bit rate mode : Constant
Bit rate : 192 kb/s
Channel(s) : 2 channels
Channel layout : L R
Sampling rate : 48.0 kHz
Frame rate : 31.250 FPS (1536 SPF)
Bit depth : 16 bits
Compression mode : Lossy
Stream size : 176 MiB (3%)
Title : MVO
Language : Russian
Service kind : Complete Main
Default : No
Forced : No

Audio #3
ID : 4
Format : AC-3
Format/Info : Audio Coding 3
Commercial name : Dolby Digital
Codec ID : A_AC3
Duration : 2 h 7 min
Bit rate mode : Constant
Bit rate : 448 kb/s
Channel(s) : 6 channels
Channel layout : L R C LFE Ls Rs
Sampling rate : 48.0 kHz
Frame rate : 31.250 FPS (1536 SPF)
Bit depth : 16 bits
Compression mode : Lossy
Delay relative to video : 24 ms
Stream size : 410 MiB (6%)
Language : English
Service kind : Complete Main
Default : No
Forced : No

Text #1
ID : 5
Format : UTF-8
Codec ID : S_TEXT/UTF8
Codec ID/Info : UTF-8 Plain Text
Duration : 2 h 0 min
Bit rate : 87 b/s
Count of elements : 1787
Stream size : 76.7 KiB (0%)
Language : Russian
Default : No
Forced : No

Text #2
ID : 6
Format : UTF-8
Codec ID : S_TEXT/UTF8
Codec ID/Info : UTF-8 Plain Text
Duration : 2 h 6 min
Bit rate : 65 b/s
Count of elements : 2111
Stream size : 61.0 KiB (0%)
Language : English
Default : No
Forced : No
Не официальная IMAX версия собрана из двух WEB-DL. Присутствуют сцены IMAX с полной картинкой и сцены Open Matte где сбоку немного обрезано. Всего IMAX и Open Matte сцен примерно на 20 минут, основная часть фильма как на Bluray
Источник http://BlaTor.org

Внимание! AdBlock блокирует показ скриншотов, все вопросы к разработчикам )))
Трекер:  [ 15-Окт-2019 20:30 ]

  

Скачать .torrent

Размер .torrent файла 16 KB


Размер: 6.34 GB
Хэш (hash) релиза: 329771f92a6f35f4f76495180a7f902c1a0ed029
Подписка на обновления:

Торренты, похожие на Аладдин Aladdin скачать торрент

Форум Название Автор Размер S L Добавлен
Зарубежные фильмы 2016-2019 (Новинки зарубежного кино) ·· Аладдин / Aladdin (2019) UHD BDRip-HEVC 2160p | 4K | HDR | Лицензия, P Galfimbul ghost 2238749428720.85 GB 0 0 1583259641

21:20

3-Мар-20

Зарубежные фильмы 2016-2019 (Новинки зарубежного кино) ·· Аладдин / Aladdin (2019) BDRip-AVC от Bitru | D, P Galfimbul ghost 41343791293.85 GB 0 0 1580128208

15:30

27-Янв-20

Зарубежные фильмы 2016-2019 (Новинки зарубежного кино) ·%· Аладдин / Aladdin (2019) BDRip от HQ-ViDEO | D | Лицензия Galfimbul ghost 23399424002.18 GB 0 0 1578532214

04:10

9-Янв-20

Зарубежные фильмы 2016-2019 (Новинки зарубежного кино) ·%· Аладдин / Aladdin (2019) DVD5 Galfimbul ghost 46848675844.36 GB 0 0 1572527425

16:10

31-Окт-19

Зарубежные фильмы 2016-2019 (Новинки зарубежного кино) ·%· Аладдин / Aladdin (2019) DVD9 | D, P | Custom Galfimbul ghost 67471933446.28 GB 0 0 1572437416

15:10

30-Окт-19

Зарубежные фильмы 2016-2019 (Новинки зарубежного кино) ·%· Аладдин / Aladdin (2019) BDRemux 1080p от селезень | 3D-Video | Лицензия Galfimbul ghost 4490919936041.82 GB 0 0 1571829611

14:20

23-Окт-19

Зарубежные фильмы 2016-2019 (Новинки зарубежного кино) ·%· Аладдин / Aladdin (2019) BDRip-AVC | D | Лицензия Galfimbul ghost 781977759746 MB 0 0 1570975843

17:10

13-Окт-19

Зарубежные фильмы 2016-2019 (Новинки зарубежного кино) ·%· Аладдин / Aladdin (2019) WEBRip 1080p | D | Open Matte Galfimbul ghost 59762036965.57 GB 0 0 1570918223

01:10

13-Окт-19

Мультфильмы 2016-2020 (Новинки мультфильмов) ·%· Аладдин / Aladdin (2019) BDRip-AVC от OlLanDGroup | Лицензия Galfimbul ghost 15688400651.46 GB 0 0 1570647013

21:50

9-Окт-19

Зарубежные фильмы 2016-2019 (Новинки зарубежного кино) ·%· Аладдин / Aladdin (2019) UHD BDRip-HEVC 2160p | 4K | HDR | Лицензия, P Galfimbul ghost 1548880392314.43 GB 0 0 1570138209

00:30

4-Окт-19

Зарубежные фильмы 2016-2019 (Новинки зарубежного кино) ·%· Аладдин / Aladdin (2019) BDRemux 1080p от селезень | Лицензия Galfimbul ghost 2955911598427.53 GB 0 0 1570059010

02:30

3-Окт-19

Зарубежные фильмы 2016-2019 (Новинки зарубежного кино) ·%· Аладдин / Aladdin (2019) BDRip 720p от селезень | Лицензия Galfimbul ghost 85540059447.97 GB 0 0 1570057812

02:10

3-Окт-19

Зарубежные фильмы 2016-2019 (Новинки зарубежного кино) ·%· Аладдин / Aladdin (2019) BDRip 1080p от селезень | Лицензия Galfimbul ghost 1398157999213.02 GB 0 0 1570056608

01:50

3-Окт-19

Зарубежные фильмы 2016-2019 (Новинки зарубежного кино) ·%· Аладдин / Aladdin (2019) Blu-ray EUR 1080p | Лицензия Galfimbul ghost 3972210964736.99 GB 0 0 1570054227

01:10

3-Окт-19

Зарубежные фильмы 2016-2019 (Новинки зарубежного кино) ·%· Аладдин / Aladdin (2019) BDRip 720p | D, P | iTunes Galfimbul ghost 57842494865.39 GB 0 0 1567151408

10:50

30-Авг-19

Зарубежные фильмы 2016-2019 (Новинки зарубежного кино) ·%· Аладдин / Aladdin (2019) BDRip от MegaPeer | iTunes Galfimbul ghost 22827382872.13 GB 0 0 1567107631

22:40

29-Авг-19

Зарубежные фильмы 2016-2019 (Новинки зарубежного кино) ·%· Аладдин / Aladdin (2019) BDRip-AVC от OlLanDGroup | iTunes Galfimbul ghost 25298888722.36 GB 2 0 1567107616

22:40

29-Авг-19

Зарубежные фильмы 2016-2019 (Новинки зарубежного кино) ·%· Аладдин / Aladdin (2019) WEB-DLRip-AVC от ExKinoRay | HDRezka Studio Galfimbul ghost 16119674701.5 GB 0 0 1566257409

02:30

20-Авг-19

Зарубежные фильмы 2016-2019 (Новинки зарубежного кино) ·%· Аладдин / Aladdin (2019) WEB-DL 1080p | HDRezka Studio Galfimbul ghost 64139139035.97 GB 0 0 1565605824

13:30

12-Авг-19

Superjob
dpd RU

Еще никто не оставлял запись к записи скачать торрент Аладдин Aladdin . Будь первым!

!Обратная связь