Скачать через торрент Большие надежды Серии: 1-8 из 8 Фильм бесплатно в хорошем качестве torrent

Скачивайте на UnionPeer.org фильмы через торрент без регистрации. Новинки кино в хорошем качестве через торрент. На UnionPeer.org можно скачать через торрент фильмы 2014 и 2015 годов. Самые новые фильмы.

Скачать торрент Большие надежды Серии: 1-8 из 8 бесплатно через .torrent фильм мультфильм сериал

Статистика раздачи
Размер:  13.83 GB   |    Зарегистрирован:  9 месяцев   |    .torrent скачан:  7 раз   |   
Раздают:  1  
 

Скачать Большие надежды / Серии: 1-8 из 8 (Юлия Краснова) [2019, мелодрама, HDTV 1080i] через torrent

 
 
Автор Сообщение

Galfimbul ghost

avatar Galfimbul ghost


Большие надежды

Год выпуска: 2019
Производство: Россия, Киностудия Маркес
Жанр: мелодрама
Продолжительность: ~00:51:00
Субтитры: нет

Режиссёр: Юлия Краснова

В ролях: Татьяна Бабенкова, Анфиса Черных, Елена Яковлева, Евгений Антропов, Леонид Громов, Алексей Демидов, Василий Симонов, Ян Цапник, Кирилл Жандаров, Даниил Белых, Артём Осипов, Кирилл Сафонов, Олег Гаас, Евгений Сахаров

Описание: Жизнь в богатстве или любовь в шалаше? Сделать выбор не просто. И даже если ты уже разобрался в себе, своих желаниях и принципах, жизнь подкидывает свои сюрпризы. История любви и невосполнимых потерь на фоне жизни страны последних тридцати лет. Юные Эра и Зина, окрыленные большими надеждами, наперекор советам родителей, отправляются в город за своей мечтой. Они многое пройдут рука об руку, смогут по-настоящему подружиться, похоронят наивность и иллюзии, переживут взлёты и падения. Поймут, что главное в жизни – сохранить любовь и веру в людей и надежду на лучшее – несмотря ни на что.

Реклама: Нет

Сэмпл: http://sendfile.su/1544055

Качество: HDTV 1080i
Формат: TS
Видео кодек: H.264
Аудио кодек: MP2
Видео: MPEG4 Video (H264), 1920х1080, 25 fps, ~4500 Kbps, bit/pixel 0.087
Аудио: MP2, 48000Hz, stereo, 192 kbps, 2 ch
Общее
Идентификатор : 1 (0x1)
Полное имя : D:\Bol''shie nadezhdy 2019 HDTV 1080i ( rip by mutabor369 )\Bol''shie nadezhdy..2 seriya.2019.HDTV 1080i.by.mutabor369.ts
Формат : MPEG-TS
Размер файла : 1,76 Гбайт
Продолжительность : 50 м. 33 с.
Режим общего битрейта : Переменный
Общий поток : 4971 Кбит/сек

Видео
Идентификатор : 211 (0xD3)
Идентификатор меню : 1 (0x1)
Формат : AVC
Формат/Информация : Advanced Video Codec
Профиль формата : High@L4
Настройки формата : CABAC / 4 Ref Frames
Параметр CABAC формата : Да
Параметр RefFrames формата : 4 кадра
Параметр GOP формата : N=1
Идентификатор кодека : 27
Продолжительность : 50 м. 33 с.
Битрейт : 4532 Кбит/сек
Ширина : 1920 пикселей
Высота : 1080 пикселей
Соотношение сторон : 16:9
Частота кадров : 25,000 кадров/сек
Стандарт вещания : Component
Цветовое пространство : YUV
Субдискретизация насыщенности : 4:2:0
Битовая глубина : 8 бит
Тип развёртки : Чересстрочная
Метод сохранения типа развёртки : Раздельные поля
Порядок развёртки : Верхнее поле первое
Бит/(Пиксели*Кадры) : 0.087
Размер потока : 1,60 Гбайт (91%)
Цветовой диапазон : Limited
Основные цвета : BT.709
Характеристики трансфера : BT.709
Коэффициенты матрицы : BT.709

Аудио
Идентификатор : 221 (0xDD)
Идентификатор меню : 1 (0x1)
Формат : MPEG Audio
Версия формата : Version 1
Профиль формата : Layer 2
Идентификатор кодека : 3
Продолжительность : 50 м. 33 с.
Вид битрейта : Постоянный
Битрейт : 192 Кбит/сек
Каналы : 2 канала
Частота : 48,0 КГц
Частота кадров : 41,667 кадра/сек (1152 SPF)
Метод сжатия : С потерями
Размер потока : 69,4 Мбайт (4%)
Язык : Russian
Внимание! Раздача ведётся путём добавления новых серий; при каждом добавлении создаётся новый торрент.
Чтобы начать докачку новой серии, пользователям необходимо сделать следующее:
1. Остановить скачивание;
2. Удалить старый торрент у себя из клиента (старые серии удалять не надо);
3. Скачать новый торрент и запустить его у себя в клиенте вместо старого, при этом указать клиенту путь в старую папку куда и должно происходить скачивание новых серий. Ваш клиент при этом должен произвести хеширование (проверку) старой папки и будет докачивать только те серии, которых у вас ещё нет. Старые серии при этом не удаляются, а продолжают раздаваться! Eсли вы уже удалили старые серии, то предотвратить повторную закачку старых серий можно, отжав галочку в соответствующих местах при запуске нового торрента.


Внимание! AdBlock блокирует показ скриншотов, все вопросы к разработчикам )))
Трекер:  [ 19-Фев-2020 00:42 ]

  

Скачать .torrent

Размер .torrent файла 35 KB


Размер: 13.83 GB
Хэш (hash) релиза: 3067352e41be5a944e64ed2fdfd5dd3e66c816d1
Подписка на обновления:

Торренты, похожие на Большие надежды Серии: 1-8 из 8 скачать торрент

Форум Название Автор Размер S L Добавлен
Российские сериалы ·· Большие надежды / Серии: 1-8 из 8 (Юлия Краснова) [2020, мелодрама, WEBRip] Galfimbul ghost 56242810885.24 GB 0 0 1582065237

01:33

19-Фев-20

Еще никто не оставлял запись к записи скачать торрент Большие надежды Серии: 1-8 из 8 . Будь первым!

!Обратная связь