Скачать через торрент Любовь напоказ Afili Ask Фильм бесплатно в хорошем качестве torrent

Скачивайте на UnionPeer.org фильмы через торрент без регистрации. Новинки кино в хорошем качестве через торрент. На UnionPeer.org можно скачать через торрент фильмы 2014 и 2015 годов. Самые новые фильмы.

Скачать торрент Любовь напоказ Afili Ask бесплатно через .torrent фильм мультфильм сериал

Статистика раздачи
Размер:  65.77 GB   |    Зарегистрирован:  1 месяц 17 дней   |    .torrent скачан:  7 раз   |   
Раздают:  1  
 

Скачать Любовь напоказ / Afili Ask / Серии: 1-34 из ? (Сердар Гёзелекли) [2019-2020, Турция, Мелодрама, комедия, WEBRip (720p)] DVO (А.Гайдаржи & А.Юрченко) через torrent

 
загрузка...
 
Автор Сообщение

Galfimbul ghost

avatar Galfimbul ghost


Любовь напоказ / Afili Ask

Год выпуска: 2019-2020
Производство: Kanal D
Жанр: Мелодрама, комедия
Продолжительность: ~ 02:10:00 / каждая серия
Перевод: любительский (двухголосый закадровый А.Гайдаржи & А.Юрченко)
Субтитры: отсутствуют

Режиссёр: Сердар Гёзелекли

В ролях: Чаглар Эртугрул, Бурджу Озберк, Танер Румели, Зейнеп Тугче Баят, Угур Узунель, Неше Байкент, Алтан Эркекли, Гюзиде Дурмаз, Серкай Тютюнджю, Бениан Донмез

Описание: Любовь напоказ / Afili Aşk турецкий сериал — летняя премьера 2019 года. Жила была девушка, скромная и веселая красавица Айше. Жила она в простом районе и работала в ателье. Жизнь Айше была скучна и однообразна да еще и братья тираны держали её под неустанным контролем. И мечтала эта девушка выйти замуж за своего любимого, но тут то все и завертелось. Решили братья выдать её замуж совсем не за того парня. А любимый услышав о необходимости пожениться скрылся в тумане. И что теперь делать бедной девушке? И тут пришло решение, спасение, или нежданная любовь в лице одного плейбоя. Керем — наследник текстильного бизнеса, красавец и бабник и по совместительству начальник Айше однажды столкнулся с девушкой не ставшей жертвой его очарования. Так получилось, что в поисках решения своей проблемы Айше вовлекает Керема... И вот они уже женаты. Не успев опомнится от этого, парочка будет вовлечена все в новые и новые приключения...

Качество: WEBRip (720p)
Формат: MP4
Видео кодек: H.264
Аудио кодек: AAC
Видео: MPEG4 Video (H264), 1280x720, 25 fps, 1800 kbps
Аудио: AAC, 44100 Hz, stereo, 192 kbps

Реклама: Отсутствует
Формат : MPEG-4
Профиль формата : Base Media
Идентификатор кодека : isom
Размер файла : 1,79 Гбайт
Продолжительность : 2 ч. 8 м.
Общий поток : 1996 Кбит/сек
Программа кодирования : Lavf56.40.101

Видео
Идентификатор : 1
Формат : AVC
Формат/Информация : Advanced Video Codec
Профиль формата : Baseline@L3.1
Параметр CABAC формата : Нет
Параметр ReFrames формата : 1 кадр
Идентификатор кодека : avc1
Идентификатор кодека/Информация : Advanced Video Coding
Продолжительность : 2 ч. 8 м.
Битрейт : 1800 Кбит/сек
Ширина : 1280 пикселей
Высота : 720 пикселей
Соотношение сторон : 16:9
Режим частоты кадров : Постоянный
Частота кадров : 25,000 кадров/сек
Цветовое пространство : YUV
Субдискретизация насыщенности : 4:2:0
Битовая глубина : 8 бит
Тип развёртки : Прогрессивная
Бит/(Пиксели*Кадры) : 0.078
Размер потока : 1,61 Гбайт (90%)
Библиотека кодирования : x264 core 148 r2643 5c65704
Настройки программы : cabac=0 / ref=1 / deblock=1:0:0 / analyse=0x1:0x111 / me=hex / subme=7 / psy=1 / psy_rd=1.00:0.00 / mixed_ref=0 / me_range=16 / chroma_me=1 / trellis=1 / 8x8dct=0 / cqm=0 / deadzone=21,11 / fast_pskip=1 / chroma_qp_offset=-2 / threads=3 / lookahead_threads=1 / sliced_threads=0 / nr=0 / decimate=1 / interlaced=0 / bluray_compat=0 / constrained_intra=0 / bframes=0 / weightp=0 / keyint=250 / keyint_min=25 / scenecut=40 / intra_refresh=0 / rc_lookahead=40 / rc=abr / mbtree=1 / bitrate=1800 / ratetol=1.0 / qcomp=0.60 / qpmin=10 / qpmax=51 / qpstep=4 / ip_ratio=1.41 / aq=1:1.00

Аудио
Идентификатор : 2
Формат : AAC
Формат/Информация : Advanced Audio Codec
Профиль формата : LC
Идентификатор кодека : 40
Продолжительность : 2 ч. 8 м.
Duration_LastFrame : -8 мс.
Вид битрейта : Постоянный
Битрейт : 192 Кбит/сек
Каналы : 2 канала
Расположение каналов : Front: L R
Частота : 44,1 КГц
Метод сжатия : С потерями
Размер потока : 179 Мбайт (10%)
Внимание! Раздача ведётся путём добавления новых серий; при каждом добавлении создётся новый торрент. Чтобы начать докачку новой серии, пользователям необходимо сделать следующее:

Остановить скачивание.
Удалить старый торрент у себя из клиента (старые серии удалять не надо).
Скачать новый торрент и запустить его у себя в клиенте вместо старого, при этом указать клиенту путь в старую папку куда и должно происходить скачивание новых серий.

Ваш клиент при этом должен произвести хеширование (проверку) старой папки (если не производит сам - помогите ему сделать это), и будет докачивать только те серии которых у вас ещё нет. Старые серии при этом не удаляются, а продолжают раздаваться!
Eсли вы уже удалили старые серии, то предотвратить повторную закачку старых серий можно, отжав галочку в соответсвующих местах при запуске нового торрента. По возможности, желательно не удалять старые серии как можно дольше чтобы релизёр не столько продолжал раздавать старые серии, а смог сконцентрироваться на новых.


Трекер:  [ 19-Фев-2020 10:18 ]

  

Скачать .torrent

Размер .torrent файла 331 KB


Размер: 65.77 GB
Хэш (hash) релиза: ccfb3c79cd9836f4510fa680e332cf18e3e32e85
Подписка на обновления:

Торренты, похожие на Любовь напоказ Afili Ask скачать торрент

Форум Название Автор Размер S L Добавлен
Зарубежные сериалы ·· Любовь напоказ / Afili Ask / Серии: 1-34 из ? (Сердар Гёзелекли / Serdar Gözelekli) [2019, Турция, Мелодрама, комедия, WEBRip] DVO (dizimania) Galfimbul ghost 5763954830253.68 GB 0 0 1582096946

10:22

19-Фев-20

Еще никто не оставлял запись к записи скачать торрент Любовь напоказ Afili Ask . Будь первым!

!Обратная связь