Скачать через торрент Звёздный путь: Пикар Star Trek: Picard Фильм бесплатно в хорошем качестве torrent

Скачивайте на UnionPeer.org фильмы через торрент без регистрации. Новинки кино в хорошем качестве через торрент. На UnionPeer.org можно скачать через торрент фильмы 2014 и 2015 годов. Самые новые фильмы.

Скачать торрент Звёздный путь: Пикар Star Trek: Picard бесплатно через .torrent фильм мультфильм сериал

Статистика раздачи
Размер:  5.58 GB   |    Зарегистрирован:  1 год 11 месяцев   |    .torrent скачан:  38 раз   |   
Раздают:  1  
   
 
Автор Сообщение

Galfimbul

avatar Galfimbul


Звёздный путь: Пикар | Star Trek: Picard
«The End is only the Beginning»

Производство: США
Год выпуска: 2020
Жанр: фантастика, боевик, драма, приключения
Продолжительность: ~ 00:46:00 серия
Премьера (мир): 13 января 2020
Перевод: Профессиональный (многоголосый закадровый) |LostFilm|
Оригинальная аудиодорожка: Английская
Режиссер: Ханель М. Кулпеппер, Джонатан Фрейкс, Акива Голдсман
Актеры: Патрик Стюарт, Сантьяго Кабрера, Иза Брионес, Элисон Пилл, Гарри Тредэвэй, Мишель Херд, Ребекка Висоцки, Джейми МакШейн, Орла Брэйди
Описание фильма:
Спустя 15 лет жизнь некогда бороздившего космические просторы Жана-Люка Пикара, кажется, стала совсем спокойной. Однако вскоре ему придётся покинуть насиженное место и отправиться навстречу очередным приключениям.



Качество видео: WEB-DL 720p
Формат: MKV
Видео: AVC, 1280 x 720 (1.778), 24.000 fps, ~3608 kbps
Аудио Rus: AC-3, 48 kHz, 2 ch, 384 kbps |LostFilm|
Аудио Eng: Е-AC-3, 48 kHz, 6 ch, 640 kbps |Original|
Субтитры: Rus (Forced, Full), Eng (SDH)
Реклама:
Отсутствует


ОбщееУникальный идентификатор : 317409676609652673881671431353050637565 (0xEECAE14D0F26EB58F2DDA3285F68A4FD)Полное имя : E:\_Сериалы\_Сериалы\Звездный путь Пикар\Star.Trek.Picard.S01.720p.WEB-DL.LostFilm\Star.Trek.Picard.S01E01.WEBDL.720p.LF.RGzsRutracker.mkvФормат : MatroskaВерсия формата : Version 4Размер файла : 1,49 ГбайтПродолжительность : 46 м. 6 с.Общий поток : 4634 Кбит/секДата кодирования : UTC 2020-01-26 17:50:38Программа кодирования : mkvmerge v42.0.0 (''Overtime'') 64-bitБиблиотека кодирования : libebml v1.3.10 + libmatroska v1.5.2

ВидеоИдентификатор : 1Формат : AVCФормат/Информация : Advanced Video CodecПрофиль формата : High@L3.1Настройки формата : CABAC / 4 Ref FramesПараметр CABAC формата : ДаПараметр RefFrames формата : 4 кадраИдентификатор кодека : V_MPEG4/ISO/AVCПродолжительность : 46 м. 6 с.Вид битрейта : ПостоянныйБитрейт : 3608 Кбит/секНоминальный битрейт : 6000 Кбит/секШирина : 1280 пикселейВысота : 720 пикселейСоотношение сторон : 16:9Режим частоты кадров : ПостоянныйЧастота кадров : 24,000 кадра/секЦветовое пространство : YUVСубдискретизация насыщенности : 4:2:0Битовая глубина : 8 битТип развёртки : ПрогрессивнаяБит/(Пиксели*Кадры) : 0.163Размер потока : 1,16 Гбайт (78%)Язык : EnglishDefault : ДаForced : НетЦветовой диапазон : LimitedОсновные цвета : BT.709Характеристики трансфера : BT.709Коэффициенты матрицы : BT.709

Аудио #1Идентификатор : 2Формат : AC-3Формат/Информация : Audio Coding 3Коммерческое название : Dolby DigitalИдентификатор кодека : A_AC3Продолжительность : 46 м. 6 с.Вид битрейта : ПостоянныйБитрейт : 384 Кбит/секКаналы : 2 каналаChannelLayout : L RЧастота : 48,0 КГцЧастота кадров : 31,250 кадров/сек (1536 SPF)Метод сжатия : С потерямиРазмер потока : 127 Мбайт (8%)Язык : RussianServiceKind/String : Complete MainDefault : ДаForced : Нет

Аудио #2Идентификатор : 3Формат : E-AC-3Формат/Информация : Enhanced AC-3Коммерческое название : Dolby Digital PlusИдентификатор кодека : A_EAC3Продолжительность : 46 м. 6 с.Вид битрейта : ПостоянныйБитрейт : 640 Кбит/секКаналы : 6 каналовChannelLayout : L R C LFE Ls RsЧастота : 48,0 КГцЧастота кадров : 31,250 кадров/сек (1536 SPF)Метод сжатия : С потерямиРазмер потока : 211 Мбайт (14%)Язык : EnglishServiceKind/String : Complete MainDefault : НетForced : Нет

Текст #1Идентификатор : 4Формат : UTF-8Идентификатор кодека : S_TEXT/UTF8Идентификатор кодека/Информация : UTF-8 Plain TextПродолжительность : 37 м. 5 с.Битрейт : 3 бит/секElementCount : 22Размер потока : 923 байт (0%)Язык : RussianDefault : ДаForced : Да

Текст #2Идентификатор : 5Формат : UTF-8Идентификатор кодека : S_TEXT/UTF8Идентификатор кодека/Информация : UTF-8 Plain TextПродолжительность : 44 м. 36 с.Битрейт : 91 бит/секElementCount : 631Размер потока : 30,0 Кбайт (0%)Язык : RussianDefault : НетForced : Нет

Текст #3Идентификатор : 6Формат : UTF-8Идентификатор кодека : S_TEXT/UTF8Идентификатор кодека/Информация : UTF-8 Plain TextПродолжительность : 42 м. 56 с.Битрейт : 54 бит/секElementCount : 638Размер потока : 17,0 Кбайт (0%)Язык : EnglishDefault : НетForced : Нет

Текст #4Идентификатор : 7Формат : UTF-8Идентификатор кодека : S_TEXT/UTF8Идентификатор кодека/Информация : UTF-8 Plain TextПродолжительность : 43 м. 5 с.Битрейт : 58 бит/секElementCount : 741Размер потока : 18,6 Кбайт (0%)Заголовок : SDHЯзык : EnglishDefault : НетForced : Нет


Раздача ведётся путём добавления новых серий; при каждом добавлении создаётся новый торрент.
Чтобы начать докачку новой серии, пользователям необходимо сделать следующее:
1. остановить скачивание,
2. удалить старый торрент у себя из клиента (старые серии удалять не надо),
3. скачать новый торрент и запустить его у себя в клиенте вместо старого, при этом указать клиенту путь в старую папку, куда и должно происходить скачивание новых серий.

Ваш клиент при этом должен произвести хеширование (проверку) старой папки (если не производит сам - помогите ему сделать это), и будет докачивать только те серии которых у вас ещё нет. Старые серии при этом не удаляются, а продолжают раздаваться!

Eсли вы уже удалили старые серии, то предотвратить повторную закачку старых серий можно, отжав галочку в соответствующих местах при запуске нового торрента. По возможности, желательно не удалять старые серии как можно дольше, чтобы релизёр не столько продолжал раздавать старые серии, а смог сконцентрироваться на новых.

Совет для тех, кто не хочет ждать перехеширования:
Создайте ещё одну папку рядом с папкой сериала (рядом, а не в ней!!!). Каждую новую серию после удачной загрузки копируйте в новую папку так чтобы ваша основная папка всегда была пуста. Когда ваш новый торрент предложит вам закачать все файлы, выберете только последнюю. Для сидирования же укажите адрес новой папки.

Как закачать отдельный файл из торрента или докачать ранее пропущенные файлы торрента!

1. Открыть торрент
2. Снять галки с тех файлов торрента, которые мы не хотим закачивать. Оставляем только на нужных нам файлах (файле).
3. Нажать О.К.

В клиенте utorrent

Инструкция

1) Открыть торрент


2) Снять галки с тех файлов торрента, которые мы не хотим закачивать:

* либо вручную, снимая с каждого файла галку( скрин №1)
* либо, нажав кнопку "Снять метки (Select None)", сняв сразу со всех файлов(скрин №2)
№1

№2

Оставляем только на нужных нам файлах (файле).

3)Нажать О.К

Приятного просмотра!!!


Внимание! AdBlock блокирует показ скриншотов, все вопросы к разработчикам )))
Трекер:  [ 19-Фев-2020 10:18 ]

  

Скачать .torrent

Размер .torrent файла 14 KB


Размер: 5.58 GB
Хэш (hash) релиза: c9e0c156adcfd96908d974f319f55f330cb742a5
Подписка на обновления:

Торренты, похожие на Звёздный путь: Пикар Star Trek: Picard скачать торрент

Форум Название Автор Размер S L Добавлен
Зарубежные сериалы ·· Звёздный путь: Пикар / Star Trek: Picard / Сезон: 1 / Серии: 1-4 из 10 (Ханель Кулпеппер, Джонатан Фрейкс) [2020, США, фантастика, WEBRip 1080p] Original + Rus Sub (TeamNotDead) Galfimbul 1243345034111.58 GB 0 0 1582097946

10:39

19-Фев-20

Зарубежные сериалы ·· Звёздный путь: Пикар / Star Trek: Picard / Сезон: 1 / Серии: 1-4 из 10 (Ханель Кулпеппер, Джонатан Фрейкс) [2020, США, фантастика, WEBRip 720p] Original + Rus Sub (TeamNotDead) Galfimbul 54794006975.1 GB 0 0 1582097938

10:38

19-Фев-20

Зарубежные сериалы ·· Звёздный путь: Пикар / Star Trek: Picard / Сезон: 1 / Серии: 1-4 из 10 (Ханель М. Кулпеппер) [2020, США, Фантастика, боевик, драма, приключения, WEB-DL 720p] MVO (AlexFilm) + Original + Sub (Rus, Eng) Galfimbul 55682889065.19 GB 0 0 1582097657

10:34

19-Фев-20

Зарубежные сериалы ·· Звёздный путь: Пикар / Star Trek: Picard / Сезон: 1 / Серии: 1-4 из 10 (Ханель М. Кулпеппер, Джонатан Фрейкс, Акива Голдсман) [2020, США, Фантастика, боевик, драма, приключения, WEB-DLRip] MVO (AlexFilm) + Original + Sub (Rus, Eng) Galfimbul 26275182702.45 GB 0 0 1582095123

09:52

19-Фев-20

Еще никто не оставлял запись к записи скачать торрент Звёздный путь: Пикар Star Trek: Picard . Будь первым!

!Обратная связь