Скачать через торрент Божественная ярость The Divine Fury Фильм бесплатно в хорошем качестве torrent

Скачивайте на UnionPeer.org фильмы через торрент без регистрации. Новинки кино в хорошем качестве через торрент. На UnionPeer.org можно скачать через торрент фильмы 2014 и 2015 годов. Самые новые фильмы.

Скачать торрент Божественная ярость The Divine Fury бесплатно через .torrent фильм мультфильм сериал

Статистика раздачи
Размер:  14.94 GB   |    Зарегистрирован:  3 года 10 месяцев   |    .torrent скачан:  24 раза   |   
Раздают:  1  
 

Скачать Божественная ярость / The Divine Fury / Saja (2019) BDRip 1080p | L2 через torrent

 
 
Автор Сообщение

Galfimbul

avatar Galfimbul


Божественная ярость /The Divine Fury / Saja

Год выхода: 2019
Жанр: боевик, ужасы, триллер
Режиссер: Ким Джу-хван
В ролях: Пак Со-джун, Ан Сон-ги, У До-хван, Пак Чи-хён, Чон Джи-хун, Ли Сын-хи, Щим Хи-соп, Ким Щи-ын, Чхве У-щик, Чо Ын-хён и др.

Описание: Когда Ён-ху был ребёнком, его отец, полицейский и очень религиозный человек, погиб при исполнении. С тех пор парень живёт, затаив на Бога обиду, не любит сближаться с людьми и предпочёл реализоваться в MMA. Однажды на ладони ударной правой руки Ён-ху проступает стигмат, и с тех пор по ночам его приходят мучить злые потусторонние сущности. Пытаясь разобраться в происходящем, парень встречает священника-экзорциста, с которым ему придется наладить отношения, чтобы вместе противостоять дьявольским силам.



Страна: Южная Корея
Продолжительность: 02:09:07
Перевод 1: любительский (двухголосый закадровый) SOFTBOX // Перевод: ФСГ 'АЗАЛИИ'
Перевод 2: любительский (двухголосый закадровый) Храм Дорам // Перевод: ФСГ 'АЗАЛИИ
Субтитры: английские (usa bluray, tw bluray), китайские (tw bluray), русские (ФСГ 'Альянс')
Оригинальная аудиодорожка: корейский

Файл
Качество: BDRip 1080p
Видео: x264, 1920x804 (2.40:1) at 24,000 fps, 13145 kbps
Аудио 1: AC3; 192 Kbps; CBR; 2 ch; 48 khz | SOFTBOX |
Аудио 2: AC3; 192 Kbps; CBR; 2 ch; 48 khz | Храм Дорам |
Аудио 3: DTS; 1536 Kbps; CBR; 6 ch; 48 khz | Корейский |
Аудио 4: DTS; 1536 Kbps; CBR; 6 ch; 48 khz | Английский (Дубляж) |
General
Unique ID : 307691332506934594231172035645775231822 (0xE77B31F170F7795E41F76E11B39F3B4E)
Complete name : Божественный гнев.2019.DVO.1080p.BluRay.x264-BdC.mkv
Format : Matroska
Format version : Version 4
File size : 14.9 GiB
Duration : 2 h 9 min
Overall bit rate : 16.6 Mb/s
Movie name : The Divine Fury [2019] [1080p] 2x DVO, RUSSUB
Encoded date : UTC 2019-12-30 07:25:49
Writing application : mkvmerge v41.0.0 ('Smarra') 32-bit
Writing library : libebml v1.3.9 + libmatroska v1.5.2
Attachments : dskork.ttf / Hermann-GotischC.ttf / framdit.ttf / framd.ttf / poster.jpg
DIRECTOR : Joo-hwan Kim
GENRE : Action, Horror, Thriller
IMDB : tt10550884

Video
ID : 1
Format : AVC
Format/Info : Advanced Video Codec
Format profile : [email protected]
Format settings : CABAC / 5 Ref Frames
Format settings, CABAC : Yes
Format settings, Reference frames : 5 frames
Codec ID : V_MPEG4/ISO/AVC
Duration : 2 h 9 min
Bit rate : 13.1 Mb/s
Width : 1 920 pixels
Height : 804 pixels
Display aspect ratio : 2.40:1
Frame rate mode : Constant
Frame rate : 24.000 FPS
Color space : YUV
Chroma subsampling : 4:2:0
Bit depth : 8 bits
Scan type : Progressive
Bits/(Pixel*Frame) : 0.355
Stream size : 11.9 GiB (79%)
Language : Korean
Default : Yes
Forced : No
Color range : Limited
Color primaries : BT.709
Transfer characteristics : BT.709
Matrix coefficients : BT.709

Audio #1
ID : 2
Format : AC-3
Format/Info : Audio Coding 3
Commercial name : Dolby Digital
Codec ID : A_AC3
Duration : 2 h 9 min
Bit rate mode : Constant
Bit rate : 192 kb/s
Channel(s) : 2 channels
Channel layout : L R
Sampling rate : 48.0 kHz
Frame rate : 31.250 FPS (1536 SPF)
Bit depth : 16 bits
Compression mode : Lossy
Stream size : 177 MiB (1%)
Title : DVO [SOFTBOX]
Language : Russian
Service kind : Complete Main
Default : Yes
Forced : No

Audio #2
ID : 3
Format : AC-3
Format/Info : Audio Coding 3
Commercial name : Dolby Digital
Codec ID : A_AC3
Duration : 2 h 9 min
Bit rate mode : Constant
Bit rate : 192 kb/s
Channel(s) : 2 channels
Channel layout : L R
Sampling rate : 48.0 kHz
Frame rate : 31.250 FPS (1536 SPF)
Bit depth : 16 bits
Compression mode : Lossy
Stream size : 177 MiB (1%)
Title : DVO [Храм Дорам]
Language : Russian
Service kind : Complete Main
Default : No
Forced : No

Audio #3
ID : 4
Format : DTS
Format/Info : Digital Theater Systems
Codec ID : A_DTS
Duration : 2 h 9 min
Bit rate mode : Constant
Bit rate : 1 509 kb/s
Channel(s) : 6 channels
Channel layout : C L R Ls Rs LFE
Sampling rate : 48.0 kHz
Frame rate : 93.750 FPS (512 SPF)
Bit depth : 16 bits
Compression mode : Lossy
Stream size : 1.36 GiB (9%)
Language : Korean
Default : No
Forced : No

Audio #4
ID : 5
Format : DTS
Format/Info : Digital Theater Systems
Codec ID : A_DTS
Duration : 2 h 9 min
Bit rate mode : Constant
Bit rate : 1 509 kb/s
Channel(s) : 6 channels
Channel layout : C L R Ls Rs LFE
Sampling rate : 48.0 kHz
Frame rate : 93.750 FPS (512 SPF)
Bit depth : 16 bits
Compression mode : Lossy
Stream size : 1.36 GiB (9%)
Title : Dub
Language : English
Default : No
Forced : No

Text #1
ID : 6
Format : UTF-8
Codec ID : S_TEXT/UTF8
Codec ID/Info : UTF-8 Plain Text
Duration : 2 h 3 min
Bit rate : 25 b/s
Count of elements : 921
Stream size : 23.3 KiB (0%)
Title : english from USA BluRay
Language : English
Default : No
Forced : No

Text #2
ID : 7
Format : UTF-8
Codec ID : S_TEXT/UTF8
Codec ID/Info : UTF-8 Plain Text
Duration : 2 h 4 min
Bit rate : 24 b/s
Count of elements : 869
Stream size : 22.5 KiB (0%)
Title : english from TW BluRay
Language : English
Default : No
Forced : No

Text #3
ID : 8
Format : ASS
Codec ID : S_TEXT/ASS
Codec ID/Info : Advanced Sub Station Alpha
Duration : 2 h 3 min
Bit rate : 61 b/s
Count of elements : 710
Compression mode : Lossless
Stream size : 56.2 KiB (0%)
Title : ФСГ 'Альянс'
Language : Russian
Default : No
Forced : No

Text #4
ID : 9
Format : PGS
Muxing mode : zlib
Codec ID : S_HDMV/PGS
Codec ID/Info : Picture based subtitle format used on BDs/HD-DVDs
Duration : 2 h 3 min
Bit rate : 16.8 kb/s
Count of elements : 1703
Stream size : 14.8 MiB (0%)
Title : english from USA BluRay
Language : English
Default : No
Forced : No

Text #5
ID : 10
Format : PGS
Muxing mode : zlib
Codec ID : S_HDMV/PGS
Codec ID/Info : Picture based subtitle format used on BDs/HD-DVDs
Duration : 2 h 4 min
Bit rate : 17.8 kb/s
Count of elements : 1738
Stream size : 15.8 MiB (0%)
Title : english from TW BluRay
Language : English
Default : No
Forced : No

Text #6
ID : 11
Format : PGS
Muxing mode : zlib
Codec ID : S_HDMV/PGS
Codec ID/Info : Picture based subtitle format used on BDs/HD-DVDs
Duration : 2 h 3 min
Bit rate : 15.9 kb/s
Count of elements : 1770
Stream size : 14.1 MiB (0%)
Title : from TW BluRay
Language : Chinese
Default : No
Forced : No

Menu
00:00:00.000 : en:
00:12:08.333 : en:
00:21:24.833 : en:
00:34:23.625 : en:
00:41:32.041 : en:
00:51:22.666 : en:
00:59:12.583 : en:
01:13:04.708 : en:
01:23:38.291 : en:
01:34:21.583 : en:
01:46:50.166 : en:
01:55:09.333 : en:
02:03:04.208 : en:
Источник http://listRutor.org

Внимание! AdBlock блокирует показ скриншотов, все вопросы к разработчикам )))
Трекер:  [ 12-Апр-2020 13:00 ]

  

Скачать .torrent

Размер .torrent файла 38 KB


Размер: 14.94 GB
Хэш (hash) релиза: 5b8abb6571ea6fc1b0bcd09d1670af369e5d70f2
Подписка на обновления:

Торренты, похожие на Божественная ярость The Divine Fury скачать торрент

Форум Название Автор Размер S L Добавлен
Зарубежные фильмы 2016-2019 (Новинки зарубежного кино) ·%· Божественная ярость / The Divine Fury / Saja (2019) WEB-DLRip от Scarabey | L2 Galfimbul 15823749121.47 GB 0 0 1573495810

21:10

11-Ноя-19

Зарубежные фильмы 2016-2019 (Новинки зарубежного кино) ·%· Божественная ярость / The Divine Fury / Saja (2019) WEB-DL 1080p | L2 Galfimbul 55255680815.15 GB 0 0 1568887232

13:00

19-Сен-19

Еще никто не оставлял запись к записи скачать торрент Божественная ярость The Divine Fury . Будь первым!

!Обратная связь