Скачать через торрент Тёмное наследие Inheritance Фильм бесплатно в хорошем качестве torrent

Скачивайте на UnionPeer.org фильмы через торрент без регистрации. Новинки кино в хорошем качестве через торрент. На UnionPeer.org можно скачать через торрент фильмы 2014 и 2015 годов. Самые новые фильмы.

Скачать торрент Тёмное наследие Inheritance бесплатно через .torrent фильм мультфильм сериал

Статистика раздачи
Размер:  3.89 GB   |    Зарегистрирован:  12 дней   |    .torrent скачан:  188 раз   |   
Раздают:  4  
 

Скачать Тёмное наследие / Inheritance (2020) WEB-DL 1080p | iTunes через torrent

 
загрузка...
 
Автор Сообщение

Galfimbul ghost

avatar Galfimbul ghost


Тёмное наследие / Inheritance

Год выхода: 2020
Жанр: Триллер, драма, детектив
Страна: США
Перевод: Дублированный | iTunes
Продолжительность: 01:50:59
Режиссер: Вон Стайн
В ролях: Лили Коллинз, Саймон Пегг, Конни Нильсен, Чейс Кроуфорд, Марке Ричардсон II, Майкл Бич, Крис Гэнн, Хосе Херрера, Кристина ДеРоса, Харрисон Стоун и др.

О фильме: Богатый и влиятельный отец семейства внезапно умирает. Его жена и дочь начинают разбираться в оставленном им наследстве. Погружаясь в прошлое отца, девушка узнает о завещании, оставленном для нее одной. Однако она не подозревает, что скоро столкнется с правдой, которая станет угрозой для всей её семьи.



Файл
Качество: WEB-DL 1080p
Видео: MPEG-4 AVC, 1920x804, 4629 kbps, 24,000 fps
Звук: русский, AC3, 5.1 ch, 48 kHz, 384 kbps | iTunes
Субтитры: русские (полные)
Общее
Уникальный идентификатор : 220353180192221358565635819598507843461 (0xA5C67A931DC15910A188B9D51EBE9F85)
Полное имя : G:Torrent2TemnoeNasledieWEBDL1080p.mkv
Формат : Matroska
Версия формата : Version 4 / Version 2
Размер файла : 3,89 Гбайт
Продолжительность : 1 ч. 51 м.
Общий поток : 5015 Кбит/сек
Дата кодирования : UTC 2020-05-18 18:25:24
Программа кодирования : mkvmerge v9.5.0 ('Quiet Fire') 64bit
Библиотека кодирования : libebml v1.3.4 + libmatroska v1.4.5

Видео
Идентификатор : 1
Формат : AVC
Формат/Информация : Advanced Video Codec
Профиль формата : High@L4
Настройки формата : CABAC / 5 Ref Frames
Параметр CABAC формата : Да
Параметр RefFrames формата : 5 кадров
Идентификатор кодека : V_MPEG4/ISO/AVC
Продолжительность : 1 ч. 50 м.
Битрейт : 4629 Кбит/сек
Ширина : 1920 пикселей
Высота : 804 пикселя
Соотношение сторон : 2,40:1
Режим частоты кадров : Постоянный
Частота кадров : 24,000 кадра/сек
Цветовое пространство : YUV
Субдискретизация насыщенности : 4:2:0
Битовая глубина : 8 бит
Тип развёртки : Прогрессивная
Бит/(Пиксели*Кадры) : 0.125
Размер потока : 3,59 Гбайт (92%)
Язык : English
Default : Да
Forced : Нет
Цветовой диапазон : Limited
Основные цвета : BT.709
Характеристики трансфера : BT.709
Коэффициенты матрицы : BT.709

Аудио
Идентификатор : 2
Формат : AC-3
Формат/Информация : Audio Coding 3
Параметр Endianness формата : Big
Идентификатор кодека : A_AC3
Продолжительность : 1 ч. 51 м.
Вид битрейта : Постоянный
Битрейт : 384 Кбит/сек
Каналы : 6 каналов
Расположение каналов : Front: L C R, Side: L R, LFE
Частота : 48,0 КГц
Частота кадров : 31,250 кадров/сек (1536 SPF)
Битовая глубина : 16 бит
Метод сжатия : С потерями
Размер потока : 305 Мбайт (8%)
Заголовок : rus
Язык : Russian
Default : Да
Forced : Нет

Текст
Идентификатор : 3
Формат : UTF-8
Идентификатор кодека : S_TEXT/UTF8
Идентификатор кодека/Информация : UTF-8 Plain Text
Продолжительность : 1 ч. 46 м.
Битрейт : 85 бит/сек
ElementCount : 1240
Размер потока : 67,1 Кбайт (0%)
Заголовок : rusFull
Язык : Russian
Default : Нет
Forced : Нет

Меню
00:00:00.000 : en:Глава 1
00:04:04.125 : en:Глава 2
00:11:31.916 : en:Глава 3
00:19:44.832 : en:Глава 4
00:29:36.290 : en:Глава 5
00:42:51.081 : en:Глава 6
00:51:04.247 : en:Глава 7
00:59:14.288 : en:Глава 8
01:09:47.746 : en:Глава 9
01:16:19.204 : en:Глава 10
01:25:44.287 : en:Глава 11
01:31:30.828 : en:Глава 12
Источник http://listRutor.org

Трекер:  [ 18-Май-2020 22:00 ]

  

Скачать .torrent

Размер .torrent файла 20 KB


Размер: 3.89 GB
Хэш (hash) релиза: 413290c6de11104673f25b43b24042148ba73862
Подписка на обновления:

Торренты, похожие на Тёмное наследие Inheritance скачать торрент

Форум Название Автор Размер S L Добавлен
Зарубежные фильмы 2016-2019 (Новинки зарубежного кино) ·%· Тёмное наследие / Inheritance (2020) WEB-DL 720p | iTunes Galfimbul ghost 37330158883.48 GB 8 1 1589836305

00:11

19-Май-20

Зарубежные фильмы 2016-2019 (Новинки зарубежного кино) ·%· Темное наследие / Inheritance (2019) WEB-DLRip от MegaPeer | iTunes Galfimbul ghost 15546081281.45 GB 3 0 1589829619

22:20

18-Май-20

Еще никто не оставлял запись к записи скачать торрент Тёмное наследие Inheritance . Будь первым!

!Обратная связь