Скачать через торрент Сделано в Бездне бесплатно Аниме Все серии на русском torrent

Статистика раздачи
Размер:  63.91 GB   |    Зарегистрирован:  1 месяц 6 дней   |    .torrent скачан:  4 раза   |   

Пиры будут получены при скачивании

 

Скачать Сделано в Бездне (фильмы) / Made in Abyss [Movie] [2 из 2] [без хардсаба] [RUS(ext), JAP+Sub] [2019, приключения, детектив, драма, фэнтези, BDRemux] [1080p] через torrent

 
Sprinthost
загрузка...
 
Автор Сообщение

Galfimbul ghost

avatar Galfimbul ghost


Сделано в Бездне (фильмы) / Made in Abyss

Год выпуска: 2019
Страна: Япония
Жанр: приключения, детектив, драма, фэнтези
Тип: Movie
Продолжительность:1ч. 58 мин. и 1ч. 45мин.
Озвучка:

Многоголосая (дубляж) Wakanim

Русские субтитры: есть (отдельным файлом, формат .ass)
Перевод:

Hariton Harko

Хардсаб: Нет
Режиссер: Кодзима Масаюки
Студия: Kinema Citrus

Описание: Бесконечная система пещер, известная как Бездна, осталась единственным «белым» пятном в мире. Никто не знает, как глубока Большая дыра, населённая странными и страшными существами и полная таинственных древних артефактов, назначение которых неизвестно ныне живущим. Поколениям авантюристов не давала покоя загадка глубины Бездны. К бесстрашным исследователям опасной ямы в конце концов приклеилось прозвище «разведчики пещер». В Орте, городе вокруг Бездны, живёт маленькая сирота по имени Рико, которая мечтает стать великим исследователем пещер, какой была её мать, и разгадать загадку ямы. Однажды, исследуя темные глубины, она натыкается на мальчика, который оказывается роботом...

Качество: Blu-Ray Remux
Формат: MKV
Видео кодек: AVC
Аудио кодек: FLAC
Видео: 1920x1080 (16:9) 23,976 fps ~37,6 Mbps 8bit
Аудио:
Jap 1 FLAC, 48000Hz, ~636 Kbps, 2ch
Jap 2 FLAC, 48000Hz, ~1585 Kbps, 5.1ch
RUS (ext) Opus, 48000Hz, ~184 Kbps, 2ch

Чаптеры присутствуют.
Субтитры и озвучка взяты из этой раздачи.
1 Journey`s Dawn
2 Wandering Twilight
Общее
Уникальный идентификатор : 268938344262740019024904556518295847779 (0xCA53A41B428A532F9D840F486B89C363)
Полное имя : Z:\Anime Release - working\Made in Abyss movies\[anti-raws]Made in Abyss Movie 1[BDRemux].mkv
Формат : Matroska
Версия формата : Version 4 / Version 2
Размер файла : 33,8 Гбайт
Продолжительность : 1 ч. 58 м.
Режим общего битрейта : Переменный
Общий поток : 40,7 Мбит/сек
Дата кодирования : UTC 2020-05-10 15:08:32
Программа кодирования : mkvmerge v28.2.0 (''The Awakening'') 64-bit
Библиотека кодирования : libebml v1.3.6 + libmatroska v1.4.9

Видео
Идентификатор : 3
Формат : AVC
Формат/Информация : Advanced Video Codec
Профиль формата : High@L4.1
Настройки формата : CABAC / 4 Ref Frames
Параметр CABAC формата : Да
Параметр RefFrames формата : 4 кадра
Идентификатор кодека : V_MPEG4/ISO/AVC
Продолжительность : 1 ч. 58 м.
Вид битрейта : Переменный
Битрейт : 38,5 Мбит/сек
Максимальный битрейт : 40,0 Мбит/сек
Ширина : 1920 пикселей
Высота : 1080 пикселей
Соотношение сторон : 16:9
Режим частоты кадров : Постоянный
Частота кадров : 23,976 (24000/1001) кадра/сек
Цветовое пространство : YUV
Субдискретизация насыщенности : 4:2:0
Битовая глубина : 8 бит
Тип развёртки : Прогрессивная
Бит/(Пиксели*Кадры) : 0.774
Размер потока : 31,9 Гбайт (95%)
Default : Нет
Forced : Нет

Аудио #1
Идентификатор : 1
Формат : FLAC
Формат/Информация : Free Lossless Audio Codec
Идентификатор кодека : A_FLAC
Продолжительность : 1 ч. 58 м.
Вид битрейта : Переменный
Битрейт : 636 Кбит/сек
Каналы : 2 канала
Расположение каналов : Front: L R
Частота : 48,0 КГц
Частота кадров : 11,719 кадров/сек (4096 SPF)
Битовая глубина : 16 бит
Размер потока : 540 Мбайт (2%)
Заголовок : FLAC 2.0
Библиотека кодирования : libFLAC 1.2.1 (UTC 2007-09-17)
Язык : Japanese
Default : Да
Forced : Нет

Аудио #2
Идентификатор : 2
Формат : FLAC
Формат/Информация : Free Lossless Audio Codec
Идентификатор кодека : A_FLAC
Продолжительность : 1 ч. 58 м.
Вид битрейта : Переменный
Битрейт : 1585 Кбит/сек
Каналы : 6 каналов
Расположение каналов : Front: L C R, Side: L R, LFE
Частота : 48,0 КГц
Частота кадров : 11,719 кадров/сек (4096 SPF)
Битовая глубина : 16 бит
Размер потока : 1,32 Гбайт (4%)
Заголовок : FLAC 5.1
Библиотека кодирования : libFLAC 1.2.1 (UTC 2007-09-17)
Язык : Japanese
Default : Нет
Forced : Нет

Меню
00:00:00.000 : :00:00:00.000
00:00:21.021 : :00:00:21.021
00:04:01.992 : :00:04:01.992
00:18:44.957 : :00:18:44.957
00:33:35.055 : :00:33:35.055
00:50:03.083 : :00:50:03.083
01:01:39.029 : :01:01:39.029
01:13:08.301 : :01:13:08.301
01:26:47.744 : :01:26:47.744
01:41:21.909 : :01:41:21.909
01:56:17.929 : :01:56:17.929
01:57:10.523 : :01:57:10.523
01:58:31.062 : :01:58:31.062


Внимание! AdBlock блокирует показ скриншотов, все вопросы к разработчикам )))
Трекер:  [ 28-Июн-2020 08:52 ]

  

Скачать .torrent

Размер .torrent файла 81 KB


Размер: 63.91 GB
Хэш (hash) релиза: d658e3860b3509df816b721818da4a3230fb2bfd
Подписка на обновления:
dpd RU

Еще никто не оставлял запись к записи скачать торрент Сделано в Бездне . Будь первым!

!Обратная связь