Скачать через торрент Нервы на пределе High Strung Фильм бесплатно в хорошем качестве torrent

Скачивайте на UnionPeer.org фильмы через торрент без регистрации. Новинки кино в хорошем качестве через торрент. На UnionPeer.org можно скачать через торрент фильмы 2014 и 2015 годов. Самые новые фильмы.

Скачать торрент Нервы на пределе High Strung бесплатно через .torrent фильм мультфильм сериал

Статистика раздачи
Размер:  835 MB   |    Зарегистрирован:  10 лет   |    .torrent скачан:  38 раз   |   
Раздают:  1  
 

Скачать Нервы на пределе / High Strung (Роджер Найгард / Roger Nygard) [1991 г., Комедия, DVDRip] через torrent

 
 
Автор Сообщение

Galfimbul

avatar Galfimbul


Нервы на пределе / High Strung

Год выпуска: 1991
Страна: США
Жанр: Комедия
Продолжительность: 01:29:33
Перевод: Профессиональный (двухголосый)
Русские субтитры: нет

Режиссер: Роджер Найгард (Roger Nygard)

В ролях: Стив Одекерк, Джим Кэрри, Дениз Кросби

Описание: Доста-а-а-ли. Замучили! И вообще довели до ручки, чтоб я сдох! Примерно так смотрит на жизнь писатель Тайн. Он сидит дома и сам себя заводит. Все ему не так да не эдак, везде сплошное безобразие! А еще какой-то мужик привязался. Только глаза закроешь - он возникает и говорит издевательски: “Восемь часов!” Да что такое может быть в восемь часов?! А ведь может! Ровно в восемь за Тайном приезжает... не скажу кто, но не из нашего мира, а из потустороннего. Не надо было занудствовать и вякать: “Чтоб я сдох!”- вот и накликал...

Качество: DVDRip
Формат: AVI
Видео кодек: XviD
Аудио кодек: MP3
Видео: 704x512, Frame rate 25.000 fps, Display aspect ratio 1.375, Resolution 24 bits
Аудио: Format MPEG Audio, Bit rate 224 Kbps, Channel(s) 1 channel

Скачать сэмпл (14.7 Mb)
Format : AVI
Format/Info : Audio Video Interleave
File size : 835 MiB
Duration : 1h 29mn
Overall bit rate : 1 303 Kbps
Writing library : MPlayer

Video
Format : MPEG-4 Visual
Format profile : Simple@L1
Format settings, BVOP : No
Format settings, QPel : No
Format settings, GMC : No warppoints
Format settings, Matrix : Default
Codec ID : DX50
Codec ID/Hint : DivX 5
Duration : 1h 29mn
Bit rate : 1 072 Kbps
Width : 704 pixels
Height : 512 pixels
Display aspect ratio : 1.375
Frame rate : 25.000 fps
Resolution : 24 bits
Colorimetry : 4:2:0
Scan type : Interlaced
Scan order : Top Field First
Bits/(Pixel*Frame) : 0.119
Stream size : 686 MiB (82%)
Writing library : Lavc52.0.0

Audio
Format : MPEG Audio
Format version : Version 1
Format profile : Layer 3
Codec ID : 55
Codec ID/Hint : MP3
Duration : 1h 27mn
Bit rate mode : Constant
Bit rate : 224 Kbps
Channel(s) : 1 channel
Sampling rate : 44.1 KHz
Resolution : 16 bits
Stream size : 140 MiB (17%)
Alignment : Aligned on interleaves
Interleave, duration : 27 ms (0.67 video frame)
Interleave, preload duration : 809 ms
Writing library : LAME3.97


Внимание! AdBlock блокирует показ скриншотов, все вопросы к разработчикам )))
Трекер:  [ 06-Май-2013 12:33 ]

  

Скачать .torrent

Размер .torrent файла 16 KB


Размер: 835 MB
Хэш (hash) релиза: 7b6d3cf718e13519cf7b44edce6cf3321f80b9ba
Подписка на обновления:

Еще никто не оставлял запись к записи скачать торрент Нервы на пределе High Strung . Будь первым!

!Обратная связь