Скачать через торрент Гетеры майора Соколова Серии: 1-8 из 8 Фильм бесплатно в хорошем качестве torrent

Скачивайте на UnionPeer.org фильмы через торрент без регистрации. Новинки кино в хорошем качестве через торрент. На UnionPeer.org можно скачать через торрент фильмы 2014 и 2015 годов. Самые новые фильмы.

Скачать торрент Гетеры майора Соколова Серии: 1-8 из 8 бесплатно через .torrent фильм мультфильм сериал

Статистика раздачи
Размер:  20.04 GB   |    Зарегистрирован:  2 года 11 месяцев   |    .torrent скачан:  93 раза   |   
Раздают:  1  
   
загрузка...
 
Автор Сообщение

Galfimbul

avatar Galfimbul


Гетеры майора Соколова

Год выпуска: 2014
Производство: "Марс Медиа"
Жанр: военный, драма
Продолжительность: 00:48:00
Субтитры: нет
Режиссёр: Бахтиер Худойназаров
В ролях:
Андрей Панин, Сергей Гармаш, Артур Смольянинов, Филипп Янковский, Татьяна Лютаева, Дарья Мельникова, Аглая Тарасова, Мария Антонова, Анастасия Микульчина,
Алиса Горшкова, Оксана Базилевич, Юлия Ромашина, Анатолий Гущин, Олег Флеер, Сергей Тэсслер (VII), Дмитрий Поднозов, Олег Тилькин
Описание:
Сентябрь 1939 года. Начало Второй Мировой войны. В Крым приезжает майор советской разведки Соколов. Его главная цель — выявить агентурную сеть террористической антисоветской организации РОВС. Руководит контрразведкой Русского общевоинского союза — штабс-капитан Семенов, псевдоним Крест.

Крест и Соколов — давние враги. Белые офицеры, в 1917 году они оказались по разные стороны баррикад. Они прекрасно знают друг друга в лицо, хотели бы и не один раз могли бы убить друг друга, но каждому из них нужна гибель системы, которую представляет противник. Оба — азартные игроки — они начинают сложную партию, в которой шансы на победу почти равны. Каждый из них готов жертвовать любыми фигурами, включая себя, ведь на кону — Родина. Одна. Но для каждого своя…
[url=]Все раздачи сериала[/url]
Возраст: 16+
релиз подготовлен RG для
Качество: HDTV (1080i)
Формат: TS
Видео кодек: AVC
Аудио кодек: MP2
Видео: AVC, 1920 х 1080 (16:9), 25,000 кадр/сек, 5 906 Кбит/сек, 0.114 bit/pixel
Аудио: MP2, 48000 Hz, 192 Kbps, 2 канала
General
ID : 1 (0x1)
Complete name : D:\Раздачи\Гетеры майора Соколова (1-8 серии из 8) HDTV (1080i)\Getery.majora.Sokolova.01.2014.HDTV.1080.Files-x.ts
Format : MPEG-TS
File size : 2.14 GiB
Duration : 47mn 46s
Overall bit rate mode : Variable
Overall bit rate : 6 417 Kbps

Video
ID : 69 (0x45)
Menu ID : 1 (0x1)
Format : AVC
Format/Info : Advanced Video Codec
Format profile : High@L4.1
Format settings, CABAC : Yes
Format settings, ReFrames : 3 frames
Codec ID : 27
Duration : 47mn 46s
Bit rate : 5 906 Kbps
Width : 1 920 pixels
Height : 1 080 pixels
Display aspect ratio : 16:9
Frame rate : 25.000 fps
Color space : YUV
Chroma subsampling : 4:2:0
Bit depth : 8 bits
Scan type : Progressive
Bits/(Pixel*Frame) : 0.114
Stream size : 1.97 GiB (92%)

Audio
ID : 68 (0x44)
Menu ID : 1 (0x1)
Format : MPEG Audio
Format version : Version 1
Format profile : Layer 2
Codec ID : 3
Duration : 47mn 46s
Bit rate mode : Constant
Bit rate : 192 Kbps
Channel(s) : 2 channels
Sampling rate : 48.0 KHz
Compression mode : Lossy
Stream size : 65.6 MiB (3%)
Language : English


Раздаю до первых 5-ти скачавших, на раздачи не возвращаюсь...


Трекер:  [ 05-Фев-2016 20:30 ]

  

Скачать .torrent

Размер .torrent файла 101 KB


Размер: 20.04 GB
Хэш (hash) релиза: 2deecb79032b32190edb06436f8167056e27e4e7
Подписка на обновления:

Еще никто не оставлял запись к записи скачать торрент Гетеры майора Соколова Серии: 1-8 из 8 . Будь первым!

!Обратная связь