Скачать через торрент Гетеры майора Соколова Серии: 1-8 из 8 Фильм бесплатно в хорошем качестве torrent

Скачивайте на UnionPeer.org фильмы через торрент без регистрации. Новинки кино в хорошем качестве через торрент. На UnionPeer.org можно скачать через торрент фильмы 2014 и 2015 годов. Самые новые фильмы.

Скачать торрент Гетеры майора Соколова Серии: 1-8 из 8 бесплатно через .torrent фильм мультфильм сериал

Статистика раздачи
Размер:  8.2 GB   |    Зарегистрирован:  4 месяца 20 дней   |    .torrent скачан:  176 раз   |   
Раздают:  1  
   
загрузка...
 
Автор Сообщение

erzsebet

avatar erzsebet


Гетеры майора Соколова

Год выпуска: 2014
Производство: "Марс Медиа"
Жанр: военный, драма
Продолжительность: 06:29:38
Режиссёр: Бахтиер Худойназаров
В ролях:
Андрей Панин, Сергей Гармаш, Артур Смольянинов, Филипп Янковский, Татьяна Лютаева, Дарья Мельникова, Аглая Тарасова, Мария Антонова, Анастасия Микульчина,
Алиса Горшкова, Оксана Базилевич, Юлия Ромашина, Анатолий Гущин, Олег Флеер, Сергей Тэсслер (VII), Дмитрий Поднозов, Олег Тилькин
Описание:
Сентябрь 1939 года. Начало Второй Мировой войны. В Крым приезжает майор советской разведки Соколов. Его главная цель — выявить агентурную сеть террористической антисоветской организации РОВС. Руководит контрразведкой Русского общевоинского союза — штабс-капитан Семенов, псевдоним Крест.
Крест и Соколов — давние враги. Белые офицеры, в 1917 году они оказались по разные стороны баррикад. Они прекрасно знают друг друга в лицо, хотели бы и не один раз могли бы убить друг друга, но каждому из них нужна гибель системы, которую представляет противник. Оба — азартные игроки — они начинают сложную партию, в которой шансы на победу почти равны. Каждый из них готов жертвовать любыми фигурами, включая себя, ведь на кону — Родина. Одна. Но для каждого своя…
Возраст: 16+
Сэмпл: http://multi-up.com/1219643
Качество: WEBRip 720p
Формат: mkv
Видео кодек: H.264
Аудио кодек: AC3
Видео: MPEG4 Video (H264) 1280x720 25fps 2569kbps 0.112 bit/pixel
Аудио: Dolby AC3 48000Hz 6ch 448kbps
Общее
Уникальный идентификатор : 241971578096016668984625508976209377060 (0xB60A07E2273DD79C896111896CA73724)
Полное имя : D:\Downloads\Гетеры майора Соколова (720p)\1-ая серия.mkv
Формат : Matroska
Версия формата : Version 4 / Version 2
Размер файла : 1,02 Гбайт
Продолжительность : 48 м. 27 с.
Общий поток : 3015 Кбит/сек
Дата кодирования : UTC 2016-04-08 10:07:02
Программа кодирования : mkvmerge v6.7.0 ('Back to the Ground') 64bit built on Jan 8 2014 15:10:52
Библиотека кодирования : libebml v1.3.0 + libmatroska v1.4.1

Видео
Идентификатор : 1
Формат : AVC
Формат/Информация : Advanced Video Codec
Профиль формата : High@L4
Настройки формата : CABAC / 3 Ref Frames
Параметр CABAC формата : Да
Параметр RefFrames формата : 3 кадра
Идентификатор кодека : V_MPEG4/ISO/AVC
Продолжительность : 48 м. 27 с.
Битрейт : 2569 Кбит/сек
Ширина : 1280 пикселей
Высота : 720 пикселей
Соотношение сторон : 16:9
Режим частоты кадров : Постоянный
Частота кадров : 25,000 кадров/сек
Цветовое пространство : YUV
Субдискретизация насыщенности : 4:2:0
Битовая глубина : 8 бит
Тип развёртки : Прогрессивная
Бит/(Пиксели*Кадры) : 0.112
Размер потока : 869 Мбайт (83%)
Библиотека кодирования : x264 core 142
Настройки программы : cabac=1 / ref=4 / deblock=1:0:0 / analyse=0x3:0x133 / me=hex / subme=7 / psy=1 / psy_rd=1.00:0.00 / mixed_ref=1 / me_range=16 / chroma_me=1 / trellis=2 / 8x8dct=1 / cqm=0 / deadzone=21,11 / fast_pskip=1 / chroma_qp_offset=-2 / threads=6 / lookahead_threads=1 / sliced_threads=0 / nr=0 / decimate=1 / interlaced=0 / bluray_compat=0 / constrained_intra=0 / bframes=6 / b_pyramid=1 / b_adapt=2 / b_bias=0 / direct=3 / weightb=1 / open_gop=0 / weightp=2 / keyint=100 / keyint_min=51 / scenecut=0 / intra_refresh=0 / rc_lookahead=50 / rc=2pass / mbtree=1 / bitrate=2569 / ratetol=1.0 / qcomp=0.60 / qpmin=0 / qpmax=69 / qpstep=4 / cplxblur=20.0 / qblur=0.5 / vbv_maxrate=3340 / vbv_bufsize=3854 / nal_hrd=none / filler=0 / ip_ratio=1.40 / aq=1:1.00
Язык : English
Default : Да
Forced : Нет

Аудио
Идентификатор : 2
Формат : AC-3
Формат/Информация : Audio Coding 3
Идентификатор кодека : A_AC3
Продолжительность : 48 м. 27 с.
Вид битрейта : Постоянный
Битрейт : 448 Кбит/сек
Каналы : 6 каналов
Расположение каналов : Front: L C R, Side: L R, LFE
Частота : 48,0 КГц
Частота кадров : 31,250 кадров/сек (1536 SPF)
Битовая глубина : 16 бит
Метод сжатия : С потерями
Размер потока : 155 Мбайт (15%)
ServiceKind/String : Complete Main
Default : Да
Forced : Нет


Трекер:  [ 07-Янв-2019 04:18 ]

  

Скачать .torrent

Размер .torrent файла 11 KB


Размер: 8.2 GB
Хэш (hash) релиза: c7e0c1a5773b97f6ae315d42748a394cd6c33b0f
Подписка на обновления:

honda129

Люблю Панина, актер великолепный, а вот фильм оставляет желать много лучшего. Странно, что он снялся в таком низкопробном сериальчике.

Хотите добавить комментарий к записи скачать торрент Гетеры майора Соколова Серии: 1-8 из 8

!Обратная связь