Скачать через торрент Гетеры майора Соколова Серии: 1-8 из 8 Фильм бесплатно в хорошем качестве torrent

Скачивайте на UnionPeer.org фильмы через торрент без регистрации. Новинки кино в хорошем качестве через торрент. На UnionPeer.org можно скачать через торрент фильмы 2014 и 2015 годов. Самые новые фильмы.

Скачать торрент Гетеры майора Соколова Серии: 1-8 из 8 бесплатно через .torrent фильм мультфильм сериал

Статистика раздачи
Размер:  5.3 GB   |    Зарегистрирован:  3 года 1 месяц   |    .torrent скачан:  88 раз   |   
Раздают:  1  
   
загрузка...
 
Автор Сообщение

Galfimbul

avatar Galfimbul


Гетеры майора Соколова
Год выпуска: 2014
Производство: Марс Медиа
Жанр: военный, драма
Продолжительность: 00:48:00
Субтитры: нет

Режиссёр: Бахтиер / Бахтияр Худойназаров

В ролях: Андрей Панин, Сергей Гармаш, Филипп Янковский, Артур Смольянинов, Анатолий Гущин, Татьяна Лютаева, Дарья Мельникова, Алиса Горшкова, Анастасия Микульчина, Аглая Тарасова, Мария Антонова, Александр Кристиан Анриа, Геннадий Яковлев, Владимир Крючков, Юрий Корнишин, Александр Резалин, Дмитрий Поднозов, Олег Тилькин, Оксана Базилевич, Юлиана Ромашина (Оррен), Агния Дитковските, Роман Шаляпин, Адам Булгучев

Описание: Сентябрь 1939 года. Начало Второй Мировой войны. В Крым приезжает майор советской разведки Соколов. Его главная цель – выявить агентурную сеть террористической антисоветской организации РОВС. Руководит контрразведкой Русского общевоинского союза - штабс-капитан Семенов, псевдоним Крест. Крест и Соколов – давние враги. Царские офицеры, в 1917 году они оказались по разные стороны баррикад. Они прекрасно знают друг друга в лицо, хотели бы и не один раз могли бы убить друг друга, но каждому из них нужна гибель системы, которую представляет противник. Оба – азартные игроки - они начинают сложную партию, в которой шансы на победу почти равны. Каждый из них готов жертвовать любыми фигурами, включая себя, ведь на кону - Родина. Одна. Но для каждого своя...

Доп. информация:


Рип: avproh

Сэмпл:


Все раздачи сериала: <a href="tracker.php?nm=%D0%93%D0%B5%D1%82%D0%B5%D1%80%D1%8B%20%D0%BC%D0%B0%D0%B9%D0%BE%D1%80%D0%B0%20%D0%A1%D0%BE%D0%BA%D0%BE%D0%BB%D0%BE%D0%B2%D0%B0" class="postLink">здесь</a>

Качество: HDTVRip
Формат: AVI
Видео кодек: XviD
Аудио кодек: AC3
Видео: 720x400 (1.80:1), 25 fps, XviD build 73 ~1800 kbps avg, 0.25 bit/pixel
Аудио: 48 kHz, AC3 Dolby Digital, 2/0 (L,R) ch, ~192 kbps
бщее
Полное имя : Getery.mayora.Sokolova.2014.HDTVRip_[New-Team]_by_avproh\01.avi
Формат : AVI
Формат/Информация : Audio Video Interleave
Размер файла : 684 Мбайт
Продолжительность : 47 м.
Общий поток : 2001 Кбит/сек
Программа кодирования : VirtualDubMod 1.5.10.3 | www.virtualdub-fr.org || (build 2550/release)
Библиотека кодирования : VirtualDubMod build 2550/release

Видео
Идентификатор : 0
Формат : MPEG-4 Visual
Профиль формата : Advanced Simple@L5
Параметр BVOP формата : 1
Параметр QPel формата : Нет
Параметр GMC формата : Без точки перехода
Параметр матрицы формата : Выборочная
Идентификатор кодека : XVID
Идентификатор кодека/Подсказка : XviD
Продолжительность : 47 м.
Битрейт : 1800 Кбит/сек
Ширина : 720 пикселей
Высота : 400 пикселей
Соотношение сторон : 16:9
Частота кадров : 25,000 кадров/сек
Цветовое пространство : YUV
Субдискретизация насыщенности : 4:2:0
Битовая глубина : 8 бит
Тип развёртки : Прогрессивная
Метод сжатия : С потерями
Бит/(Пиксели*Кадры) : 0.250
Размер потока : 615 Мбайт (90%)
Библиотека кодирования : XviD 73

Аудио
Идентификатор : 1
Формат : AC-3
Формат/Информация : Audio Coding 3
Расширение режима : CM (complete main)
Параметр Endianness формата : Big
Идентификатор кодека : 2000
Продолжительность : 47 м.
Вид битрейта : Постоянный
Битрейт : 192 Кбит/сек
Каналы : 2 канала
Расположение каналов : Front: L R
Частота : 48,0 КГц
Частота кадров : 31,250 кадров/сек (1536 spf)
Метод сжатия : С потерями
Размер потока : 65,6 Мбайт (10%)
Выравнивание : Разделение по промежуткам
Продолжительность промежутка : 40 мс. (1,00 видеокадр)
Время предзагрузки промежутка : 500 мс.


Трекер:  [ 08-Май-2016 19:00 ]

  

Скачать .torrent

Размер .torrent файла 27 KB


Размер: 5.3 GB
Хэш (hash) релиза: 33c56ed010bb9970fd97ce44e629f571e544fd79
Подписка на обновления:

Торренты, похожие на Гетеры майора Соколова Серии: 1-8 из 8 скачать торрент

Форум Название Автор Размер S L Добавлен
Российские сериалы ·*· Гетеры майора Соколова / Серии: 1-8 из 8 (Бахтиер Худойназаров) [2014, военный, драма, WEBRip 720p] erzsebet 87996708848.2 GB 0 0 1546823889

04:18

7-Янв-19

Российские сериалы ·· Гетеры майора Соколова / Серии: 1-8 из 8 (Бахтиер Худойназаров) [2014, военный, драма, HDTV (1080i)] Galfimbul 2151890732420.04 GB 0 0 1454694271

20:44

5-Фев-16

Российские сериалы ·· Гетеры майора Соколова (1-8 серии из 8) (Бахтиёр Худойназаров) [2014, Драма, SATRip] Galfimbul 48103464964.48 GB 0 0 1394482821

23:20

10-Мар-14

Еще никто не оставлял запись к записи скачать торрент Гетеры майора Соколова Серии: 1-8 из 8 . Будь первым!

!Обратная связь